Причуды месье Фортюна / Une lubie de Monsieur Fortune (Филипп Вено / Philippe Venault) [2009, Франция, драма, экранизация, DVB] Original (Fre) + Sub (rus)

 
Автор Сообщение

TorrentFilm ®

Пол:

Стаж: 2 года

Сообщений: 7741



Награды: Нет

Торрент-статистика

Создавать темы 23-Фев-2015 00:01

[Цитировать]

Причуды месье Фортюна
Une lubie de Monsieur Fortune- Страна: Франция
Жанр: драма, экранизация
Год выпуска: 2009
Продолжительность: 01:39:38
Перевод: Субтитры (перевод Éclair Group)
Cубтитры: русские
Оригинальная аудиодорожка: французский
Режиссер: Филипп Вено / Philippe VenaultВ ролях: Грегори Деранже / Grégori Derangère (Vincent Fortune), Эйва Амин / Heiva Ah-Min (Matahi/Théodore), Калейнюи Вонг / Kaleinui Wong (Orama), Мишель Бомпуа / Michel Bompoil (L'abbé), Пьер Коньон / Pierre Cognon (Le capitaine)
Описание: По роману английской поэтессы и новеллиста Сильвии Таунсенд Уорнер / Sylvia Townsend Warner "Mr Fortune's Maggot" (1927).
В начале XX века глубоко религиозный молодой миссионер Венсан Фортюн прибыл на острова Полинезии, где подружился с молодым полинезийцем Матаи, которого без труда обратил в христианскую веру. Но остальные коренные жители отказались принять новую веру. Не сумев передать учение Иисуса и выполнить миссию евангелизации, священник проникается очарованием первобытной цивилизации, приводя Матаи в отчаяние…
Доп. информация: TV5MONDE DVB-S
Участник FIFO Film Festival Tahiti 2010.

Качество видео: DVB
Формат видео: MKV
Видео: MPEG Video 2, 704x576@768x576 (4:3), 25 fps, ~2898 kbps avg, 0.286 bit/pixel
Аудио: Французский (MPEG Audio 2, 2 ch, 48 kHz, ~192.00 kbps avg)
Формат субтитров: hardsub (неотключаемые)

MediaInfo

ОбщееУникальный идентификатор : 237106664698025728938534370064101646761 (0xB26115225CA643DF8858C481ADC9A1A9)Полное имя : E:\My Torrents 2\[apreder]Une_lubie_de_Monsieur_Fortune(2009)DVB.mkvФормат : MatroskaВерсия формата : Version 2Размер файла : 2,19 ГбайтПродолжительность : 1 ч. 39 м.Режим общего битрейта : ПеременныйОбщий поток : 3153 Кбит/секДата кодирования : UTC 2015-02-21 13:47:16Программа кодирования : mkvmerge v7.6.0 ('Garden of Dreams') 64bit built on Feb 8 2015 13:04:34Библиотека кодирования : libebml v1.3.1 + libmatroska v1.4.2
ВидеоИдентификатор : 1Формат : MPEG VideoВерсия формата : Version 2Профиль формата : Main@MainПараметр BVOP формата : ДаПараметр матрицы формата : ВыборочнаяПараметр GOP формата : M=3, N=15Format_Settings_PictureStructure : FrameИдентификатор кодека : V_MPEG2Идентификатор кодека/Информация : MPEG 1 or 2 VideoПродолжительность : 1 ч. 39 м.Вид битрейта : ПеременныйБитрейт : 2898 Кбит/секШирина : 704 пикселяВысота : 576 пикселейСоотношение сторон : 16:9Режим частоты кадров : ПостоянныйЧастота кадров : 25,000 кадров/секСтандарт вещания : PALЦветовое пространство : YUVСубдискретизация насыщенности : 4:2:0Битовая глубина : 8 битТип развёртки : ЧересстрочнаяПорядок развёртки : Верхнее поле первоеМетод сжатия : С потерямиБит/(Пиксели*Кадры) : 0.286Временной код первого кадра : 00:00:00:00Оригинал временного кода : Group of pictures headerРазмер потока : 2,02 Гбайт (92%)Default : ДаForced : НетGop_OpenClosed_FirstFrame : Closed
АудиоИдентификатор : 2Формат : MPEG AudioВерсия формата : Version 1Профиль формата : Layer 2Идентификатор кодека : A_MPEG/L2Идентификатор кодека/Подсказка : MP2Продолжительность : 1 ч. 39 м.Вид битрейта : ПостоянныйБитрейт : 192 Кбит/секКаналы : 2 каналаЧастота : 48,0 КГцМетод сжатия : С потерямиРазмер потока : 137 Мбайт (6%)Язык : FrenchDefault : ДаForced : Нет

Скриншот c названием фильма

Скриншоты


Резервные скриншоты


-[2'127]
[Профиль] [ЛС]

Создавать темы 06-Авг-2015 22:42 (спустя 5 месяцев 11 дней)

Топик был перенесен из форума Фильмы до 2014 года в форум Фильмы до 2012 года
sergej644
 

Создавать темы 12-Июн-2016 08:49 (спустя 1 год 3 месяца)

Топик был перенесен из форума Фильмы 2011 года в форум Фильмы 2009 года
Russian Mafia
 
Показать сообщения:    

Текущее время: Сегодня 09:08

Часовой пояс: GMT



Вы не можете начинать темы
Вы не можете отвечать на сообщения
Вы не можете редактировать свои сообщения
Вы не можете удалять свои сообщения
Вы не можете голосовать в опросах
Вы не можете прикреплять файлы к сообщениям
Вы не можете скачивать файлы