Приходи на меня посмотреть / Nal boreowayo (2016) WEB-DLRip | L2

 
Автор Сообщение

ODESSA ®

Пол:

Стаж: 1 год 7 месяцев

Сообщений: 419

Откуда: ODESSA



Награды: Нет

Торрент-статистика

Создавать темы 28-Июн-2016 06:39

[Цитировать]

Приходи на меня посмотреть / Come To See Me / Come Watch Me / Nal boreowayo
Страна: Южная Корея
Производство: OAL Media Contents Group
Год выпуска: 2016
Жанр: триллер
Продолжительность: 01:31:01
Режиссер: Ли Чхоль-ха
В ролях: Кан Е-вон, Ли Сан-юн, Чхве Юн-со
Описание: В руки программного директора телевидения попадает дневник, в котором содержится запись о женщине, которую, якобы, насильно привезли и удерживали в психиатрической лечебнице. Больница сгорела год назад, в тот же день был убит начальник полиции. Выясняется, что по подозрению в убийстве арестовали ту самую женщину. История заинтересовала программного директора, он решает разобраться в ней и узнать правду...

Перевод: Любительский (двухголосый, закадровый) | den904 & DeadSno
Субтитры: нет-Качество: WEB-DLRip
Формат: АVI
Видео кодек: XviD
Аудио кодек: АС3
Видео: 720x304 (2.35:1), 23.976 fps, XviD ~2 079 kbps avg, 0.396 bit/pixel
Аудио: 48.0 kHz, AC3 Dolby Digital, 2/0 (L,R) ch, ~192 kbps
Дата премьеры (мир): 7 апреля 2016ВНИМАНИЕ! Присутствует
ненормативная лексика

Media Info

General
Полное имя : И узрел я этот день.avi
Формат : AVI
Формат/Информация : Audio Video Interleave
Размер файла : 1,45 Гбайт
Продолжительность : 1 ч. 31 м.
Общий поток : 2281 Кбит/сек
Программа кодирования : VirtualDubMod 1.5.10.3 | (build 2550/release)
Библиотека кодирования : VirtualDubMod build 2550/release
Видео
Идентификатор : 0
Формат : MPEG-4 Visual
Параметр BVOP формата : 1
Параметр QPel формата : Нет
Параметр GMC формата : Без точки перехода
Параметр матрицы формата : Default (H.263)
Идентификатор кодека : XVID
Идентификатор кодека/Подсказка : XviD
Продолжительность : 1 ч. 31 м.
Битрейт : 2079 Кбит/сек
Ширина : 720 пикселей
Высота : 304 пикселя
Соотношение сторон : 2,35:1
Частота кадров : 23,976 (23976/1000) кадра/сек
Цветовое пространство : YUV
Субдискретизация насыщенности : 4:2:0
Битовая глубина : 8 бит
Тип развёртки : Прогрессивная
Метод сжатия : С потерями
Бит/(Пиксели*Кадры) : 0.396
Размер потока : 1,32 Гбайт (91%)
Библиотека кодирования : XviD 1.2.1 (UTC 2008-12-04)
Аудио
Идентификатор : 1
Формат : AC-3
Формат/Информация : Audio Coding 3
Расширение режима : CM (complete main)
Параметр Endianness формата : Big
Идентификатор кодека : 2000
Продолжительность : 1 ч. 31 м.
Вид битрейта : Постоянный
Битрейт : 192 Кбит/сек
Каналы : 2 канала
Расположение каналов : Front: L R
Частота : 48,0 КГц
Частота кадров : 31,250 кадров/сек (1536 spf)
Метод сжатия : С потерями
Размер потока : 125 Мбайт (8%)
Выравнивание : Разделение по промежуткам
Продолжительность промежутка : 42 мс. (1,00 видеокадр)
Время предзагрузки промежутка : 500 мс.

Скриншоты

[Профиль] [ЛС]
Кто просматривает тему:

Форум Тема Автор Размер
Военное дело, авиация и вооружение Виктор Марковский, Игорь Приходченко - Су-25 «Грач». Все о грозном штурмовике (2016) PDF BOSS 57 MB
Документальные HD Владимир Кузьмин. "Счастье не Приходит Дважды" (Олег Кравченко) [2015, Документальный, HDTV 720p] TorrentFilm 1.46 GB
Отечественные мультфильмы Всё дело в шляпе (Лето в Муми-доле, В Муми-дол приходит осень) (Анатолий Аляшев) [1980-1983, Рисованный мультфильм, SATRip] TorrentFilm 750 MB
Отечественные мультфильмы Все дело в шляпе (Лето в Муми-доле; В Муми-дол приходит осень) (Анатолий Аляшев) [1980-1983 гг, мультфильм, DVB] TorrentFilm 1.38 GB
Отечественные cериалы Глухарь. Продолжение. Сезон Второй. / Сезон: 2 Серии: 1-48 из 48 + 2 серии Глухарь. Приходи, Новый Год! (Тимур Алпатов, Юрий Попович, Валерий Мызников) [2009, детектив, криминал, Screener ] sergej644 70.43 GB
Фильмы 2011 года Приходи пораньше / Come Early Morning (Джои Лорен Адамс / Joey Lauren Adams) [2006, США, драма, мелодрама, DVDRip] DVO + Original Eng TorrentFilm 1.46 GB
Фильмы (HD Rips | 720p, 1080p) Приходит дракон / A Dragon Arrives! (2016) WEB-DL 720p | P | iTunes Russian Mafia 2.78 GB
Фильмы 2016 года Приходит дракон / A Dragon Arrives! (2016) WEB-DLRip | iTunes достали все 1.46 GB
Показать сообщения:    

Текущее время: Сегодня 14:44

Часовой пояс: GMT



Вы не можете начинать темы
Вы не можете отвечать на сообщения
Вы не можете редактировать свои сообщения
Вы не можете удалять свои сообщения
Вы не можете голосовать в опросах
Вы не можете прикреплять файлы к сообщениям
Вы не можете скачивать файлы