Приходит женщина к врачу / Komt een vrouw bij de dokter (Рейну Урлеманс / Reinout Oerlemans) [2009, Нидерланды, драма, мелодрама, BDRip] DVO + VO + Sub (Rus. Hol) + Original Hol

 
Автор Сообщение

painkiller ®

Стаж: 2 года 3 месяца

Сообщений: 582



Награды: Нет

Торрент-статистика

Создавать темы 15-Авг-2014 01:07

[Цитировать]

Приходит женщина к врачу / Komt een vrouw bij de dokter-«Ода любви»- Страна: Нидерланды
Жанр: драма, мелодрама
Год выпуска: 2009
Продолжительность: 01:53:03
Перевод 1: Профессиональный (двухголосый закадровый)
Перевод 2: Одноголосый закадровый (BuPyC)
Cубтитры: русские, голландские
Оригинальная аудиодорожка: голландский
Режиссер: Рейну Урлеманс / Reinout Oerlemans
В ролях: Кэрис ван Хаутен, Барри Атсма, Анна Дрейвер, Пьер Бокма, Беппи Мелиссен, Ерун Виллемс, Элине Ван дер Фелден, Валид Бенмбарек, Саша Бултхёйс, Стеф Кёйперс
Описание: В названии фильма, как и книги, по которой он снят, преднамеренно используется первая фраза расхожих голландских мальчиковых анекдотов. Этот анекдот, однако, оказывается совсем не смешным. Южанин-провинциал Стейн становится успешным рекламщиком в Амстердаме, женится на не менее успешной коллеге Кармен, с рождением дочери они переезжают в большой загородный дом. И тут «судьба стучится в дверь».
Сэмпл: http://multi-up.com/957811
Качество видео: BDRip (Prihodit.zhenschina.k.vrachu.2009.MPEG-4-AVC.BluRay-Remux(1080p))
Формат видео: AVI
Видео: 720x304 (2.35:1), 24.000 fps, XviD MPEG-4 ~1678 kbps avg, 0.319 bit/pixel
Аудио 1: 48 kHz, AC3 Dolby Digital, 3/2 (L,C,R,l,r) + LFE ch, ~448 kbps - Профессиональный (двухголосый закадровый)
Аудио 2: 44.1 kHz, AC3 Dolby Digital, 2/0 (L,R) ch, ~192 kbps - Одноголосый закадровый BuPyC
Аудио 3: 48 kHz, AC3 Dolby Digital, 3/2 (L,C,R,l,r) + LFE ch, ~448 kbps - Оригинал (Голландский)
Формат субтитров: softsub (SRT)
Доп. информация о субтитрах: внешние
&

MediaInfo

Общее
Полное имя : D:\Рипы\Komt.een.vrouw.bij.de.dokter.2009.BDRip.2xRus.Hol\Komt een vrouw bij de dokter.2009.BDRip.avi
Формат : AVI
Формат/Информация : Audio Video Interleave
Профиль формата : OpenDML
Размер файла : 2,20 Гбайт
Продолжительность : 1 ч. 53 м.
Общий поток : 2789 Кбит/сек
Название фильма : Komt een vrouw bij de dokter.2009.BDRip
Режиссёр : rip by maygli
Программа кодирования : VirtualDubModRus 1.5.10.2 (build 2542/release)
Правообладатель : ... (RG Rulya74)
Видео
Идентификатор : 0
Формат : MPEG-4 Visual
Профиль формата : Advanced Simple@L5
Параметр BVOP формата : 1
Параметр QPel формата : Нет
Параметр GMC формата : Без точки перехода
Параметр матрицы формата : Выборочная
Идентификатор кодека : XVID
Идентификатор кодека/Подсказка : XviD
Продолжительность : 1 ч. 53 м.
Битрейт : 1678 Кбит/сек
Ширина : 720 пикселей
Высота : 304 пикселя
Соотношение сторон : 2,35:1
Частота кадров : 24,000 кадра/сек
Цветовое пространство : YUV
Субдискретизация насыщенности : 4:2:0
Битовая глубина : 8 бит
Тип развёртки : Прогрессивная
Метод сжатия : С потерями
Бит/(Пиксели*Кадры) : 0.319
Размер потока : 1,32 Гбайт (60%)
Библиотека кодирования : XviD 65
Аудио #1
Идентификатор : 1
Формат : AC-3
Формат/Информация : Audio Coding 3
Расширение режима : CM (complete main)
Параметр Endianness формата : Big
Идентификатор кодека : 2000
Продолжительность : 1 ч. 53 м.
Вид битрейта : Постоянный
Битрейт : 448 Кбит/сек
Каналы : 6 каналов
Расположение каналов : Front: L C R, Side: L R, LFE
Частота : 48,0 КГц
Битовая глубина : 16 бит
Метод сжатия : С потерями
Размер потока : 362 Мбайт (16%)
Выравнивание : Разделение по промежуткам
Продолжительность промежутка : 42 мс. (1,00 видеокадр)
Время предзагрузки промежутка : 500 мс.
Заголовок : Профессиональный (двухголосый закадровый)
Аудио #2
Идентификатор : 2
Формат : AC-3
Формат/Информация : Audio Coding 3
Расширение режима : CM (complete main)
Параметр Endianness формата : Big
Идентификатор кодека : 2000
Продолжительность : 1 ч. 53 м.
Вид битрейта : Постоянный
Битрейт : 192 Кбит/сек
Каналы : 2 канала
Расположение каналов : Front: L R
Частота : 44,1 КГц
Битовая глубина : 16 бит
Метод сжатия : С потерями
Размер потока : 155 Мбайт (7%)
Выравнивание : Разделение по промежуткам
Продолжительность промежутка : 42 мс. (1,00 видеокадр)
Время предзагрузки промежутка : 500 мс.
Заголовок : Любительский (одноголосый закадровый)
Аудио #3
Идентификатор : 3
Формат : AC-3
Формат/Информация : Audio Coding 3
Расширение режима : CM (complete main)
Параметр Endianness формата : Big
Идентификатор кодека : 2000
Продолжительность : 1 ч. 53 м.
Вид битрейта : Постоянный
Битрейт : 448 Кбит/сек
Каналы : 6 каналов
Расположение каналов : Front: L C R, Side: L R, LFE
Частота : 48,0 КГц
Битовая глубина : 16 бит
Метод сжатия : С потерями
Размер потока : 362 Мбайт (16%)
Выравнивание : Разделение по промежуткам
Продолжительность промежутка : 42 мс. (1,00 видеокадр)
Время предзагрузки промежутка : 500 мс.

Скриншот c названием фильма

Скриншоты

[Профиль] [ЛС]

Создавать темы 06-Авг-2015 23:11 (спустя 11 месяцев 22 дня)

Топик был перенесен из форума Фильмы до 2014 года в форум Фильмы до 2012 года
sergej644
 

Создавать темы 12-Июн-2016 08:48 (спустя 1 год 9 месяцев)

Топик был перенесен из форума Фильмы 2011 года в форум Фильмы 2009 года
Russian Mafia
 
Кто просматривает тему:

Форум Тема Автор Размер
Военное дело, авиация и вооружение Виктор Марковский, Игорь Приходченко - Су-25 «Грач». Все о грозном штурмовике (2016) PDF BOSS 57 MB
Документальные HD Владимир Кузьмин. "Счастье не Приходит Дважды" (Олег Кравченко) [2015, Документальный, HDTV 720p] TorrentFilm 1.46 GB
Отечественные мультфильмы Всё дело в шляпе (Лето в Муми-доле, В Муми-дол приходит осень) (Анатолий Аляшев) [1980-1983, Рисованный мультфильм, SATRip] TorrentFilm 750 MB
Отечественные мультфильмы Все дело в шляпе (Лето в Муми-доле; В Муми-дол приходит осень) (Анатолий Аляшев) [1980-1983 гг, мультфильм, DVB] TorrentFilm 1.38 GB
Отечественные cериалы Глухарь. Продолжение. Сезон Второй. / Сезон: 2 Серии: 1-48 из 48 + 2 серии Глухарь. Приходи, Новый Год! (Тимур Алпатов, Юрий Попович, Валерий Мызников) [2009, детектив, криминал, Screener ] sergej644 70.43 GB
Фильмы 2016 года Приходи на меня посмотреть / Nal boreowayo (2016) WEB-DLRip | L2 ODESSA 1.45 GB
Фильмы 2011 года Приходи пораньше / Come Early Morning (Джои Лорен Адамс / Joey Lauren Adams) [2006, США, драма, мелодрама, DVDRip] DVO + Original Eng TorrentFilm 1.46 GB
Фильмы (HD Rips | 720p, 1080p) Приходит дракон / A Dragon Arrives! (2016) WEB-DL 720p | P | iTunes Russian Mafia 2.78 GB
Показать сообщения:    

Текущее время: Сегодня 02:23

Часовой пояс: GMT



Вы не можете начинать темы
Вы не можете отвечать на сообщения
Вы не можете редактировать свои сообщения
Вы не можете удалять свои сообщения
Вы не можете голосовать в опросах
Вы не можете прикреплять файлы к сообщениям
Вы не можете скачивать файлы