Притча о Гассане (Ирина Кадюкова) [1987, Рисованный мультфильм, TVRip]

 
Автор Сообщение

TorrentFilm ®

Пол:

Стаж: 2 года

Сообщений: 7741



Награды: Нет

Торрент-статистика

Создавать темы 03-Янв-2016 00:05

[Цитировать]

Притча о Гассане
Страна: СССР
Жанр: Рисованный мультфильм
Продолжительность: 00:05:20
Год выпуска: 1987
Русские субтитры: нет
Режиссёр: Ирина Кадюкова
Описание: Мультипликационный фильм для детей по мотивам сказки Власа Дорошевича "Человеческая память".
Доп. информация: «Мосфильм» и «Беларусьфильм»
Сценарий:Ф.Конев
Оператор:М.Комов
Монтаж:С.Аксенова
Директор:О.Оноприенко
Раздача группы:
Качество: TVRip
Формат: AVI
Видео: 720x544 (1.32:1), 25 fps, XviD Final 1.0 (build 34) ~2895 kbps avg, 0.29 bit/pixel
Аудио: 48 kHz, MPEG Layer 3, 2 ch, ~128.00 kbps avg
Субтитры: нет

Подробные технические данные

Format : AVIFormat/Info : Audio Video InterleaveFile size : 116 MiBDuration : 5mn 20sOverall bit rate : 3 034 KbpsWriting application : VirtualDubMod 1.5.4.1 (build 2178/release)Writing library : VirtualDubMod build 2178/release
VideoID : 0Format : MPEG-4 VisualFormat profile : Advanced Simple@L5Format settings, BVOP : 1Format settings, QPel : NoFormat settings, GMC : No warppointsFormat settings, Matrix : CustomCodec ID : XVIDCodec ID/Hint : XviDDuration : 5mn 20sBit rate : 2 896 KbpsWidth : 720 pixelsHeight : 544 pixelsDisplay aspect ratio : 4:3Frame rate : 25.000 fpsColor space : YUVChroma subsampling : 4:2:0Bit depth : 8 bitsScan type : ProgressiveCompression mode : LossyBits/(Pixel*Frame) : 0.296Stream size : 111 MiB (95%)Writing library : XviD 1.0.0 (UTC 2004-05-09)
AudioID : 1Format : MPEG AudioFormat version : Version 1Format profile : Layer 3Mode : Joint stereoMode extension : MS StereoCodec ID : 55Codec ID/Hint : MP3Duration : 5mn 20sBit rate mode : ConstantBit rate : 128 KbpsChannel(s) : 2 channelsSampling rate : 48.0 KHzCompression mode : LossyStream size : 4.89 MiB (4%)Alignment : Aligned on interleavesInterleave, duration : 40 ms (1.00 video frame)Interleave, preload duration : 504 ms

Скриншоты

[Профиль] [ЛС]
Кто просматривает тему:

Форум Тема Автор Размер
Разная литература Афоризмы и притчи (305 книг) [Афоризмы, FB2, PDF] Garik014 576 MB
Отечественные мультфильмы Балдазер (Евгений Смирнов) [1997, мультфильм для взрослых, притча, DVDRip] TorrentFilm 10 MB
Фильмы (DVD 5/9) Блаженная (Сергей Струсовский) [2007, Россия, Украина, драма, притча, DVD9] TorrentFilm 7.04 GB
Фильмы (DVD 5/9) Вавилон XX / Вавілон XX (Иван Миколайчук / Іван Миколайчук) [1979, СССР, Кинопритча, драма, экранизация, DVD9] Orig (Uk) + Ru, Sub (Uk, Ru, En) • реставрация TorrentFilm 6.86 GB
Фильмы 2009 года Вальгалла: Сага о викинге / Valhalla Rising (Николас Виндинг Рефн / Nicolas Winding Refn) [2009, Дания, Великобритания, притча, приключения, HDRip] MVO (Россия) + MVO (Велес) + Original Eng TorrentFilm 1.45 GB
Фильмы 2009 года Вальгалла: Сага о викинге / Вознесение в Вальгаллу / Valhalla Rising (Николас Виндинг Рёфн / Nicolas Winding Refn) [2009 г., Притча, драма, HDRip-AVC] MVO + Eng + Sub rus eng Russian Mafia 1.45 GB
Отечественные мультфильмы Друзья (Роман Соколов) [2012, мультфильм, притча, WEBRip-AVC] TorrentFilm 92 MB
Отечественные мультфильмы Жар-птица / Värvilind (Рейн Раамат / Rein Raamat) [1974, притча, DVDRip] TorrentFilm 101 MB
Показать сообщения:    

Текущее время: Сегодня 22:12

Часовой пояс: GMT



Вы не можете начинать темы
Вы не можете отвечать на сообщения
Вы не можете редактировать свои сообщения
Вы не можете удалять свои сообщения
Вы не можете голосовать в опросах
Вы не можете прикреплять файлы к сообщениям
Вы не можете скачивать файлы