Пристрели их / Shoot \'Em Up (Майкл Дэвис / Michael Davis) [2007, США, боевик, триллер, комедия, криминал, SATRip] [Open Matte] Dub

 
Автор Сообщение

TorrentFilm ®

Пол:

Стаж: 2 года

Сообщений: 7741



Награды: Нет

Торрент-статистика

Создавать темы 17-Фев-2016 00:09

[Цитировать]

Пристрели их / Shoot 'Em Up / Open Matte
Страна: США
Жанр: боевик, триллер, комедия, криминал
Год выпуска: 2007
Продолжительность: 01:16:27
Перевод: Профессиональный (дублированный)
Cубтитры: нет
Оригинальная аудиодорожка: нет
Режиссер: Майкл Дэвис / Michael Davis
В ролях: Клайв Оуэн, Пол Джаматти, Моника Беллуччи, Стивен МакХэтти, Грег Брайк, Дэниэл Пилон, Джулиан Ричингс, Тони Манч, Скотт МакКорд, Рамона Прингл.
Описание: Изгой, живущий воспоминаниями о собственном трагическом прошлом, спасает от верной смерти грудного младенца, оказавшись впутанным в правительственный заговор. Вместе с проституткой, ублажающей фантазии клиентов о грудном вскармливании и берущей на себя заботу о малыше, герой отсчитывает последние деньки двух коррумпированных чиновников.
Доп. информация: DVB имеет иное наполнение кадра, чем BD http://screenshotcomparison.com/comparison/162198
Сэмпл: http://multi-up.com/1089387
Качество видео: SATRip
Формат видео: AVI
Видео: MPEG4, XviD, 720x400 (16:9), 25.000 fps, 2 361 Kbps (0.328 bit/pixel)
Аудио: AC-3, 48.0 KHz, 2 ch, 192 Kbps, CBR

MediaInfo

Общее
Полное имя : N:\Пристрели их.avi
Формат : AVI
Формат/Информация : Audio Video Interleave
Размер файла : 1,37 Гбайт
Продолжительность : 1 ч. 16 м.
Общий поток : 2563 Кбит/сек
Название фильма : Пристрели их / Shoot 'Em Up (2007)
Программа кодирования : VirtualDubMod 1.5.10.2 (build 2540/release)
Библиотека кодирования : VirtualDubMod build 2540/release
Авторское право : miha2154
Видео
Идентификатор : 0
Формат : MPEG-4 Visual
Профиль формата : Advanced Simple@L5
Параметр BVOP формата : 1
Параметр QPel формата : Нет
Параметр GMC формата : Без точки перехода
Параметр матрицы формата : Выборочная
Идентификатор кодека : XVID
Идентификатор кодека/Подсказка : XviD
Продолжительность : 1 ч. 16 м.
Битрейт : 2361 Кбит/сек
Ширина : 720 пикселей
Высота : 400 пикселей
Соотношение сторон : 16:9
Частота кадров : 25,000 кадров/сек
Цветовое пространство : YUV
Субдискретизация насыщенности : 4:2:0
Битовая глубина : 8 бит
Тип развёртки : Прогрессивная
Метод сжатия : С потерями
Бит/(Пиксели*Кадры) : 0.328
Размер потока : 1,26 Гбайт (92%)
Библиотека кодирования : XviD 65
Аудио
Идентификатор : 1
Формат : AC-3
Формат/Информация : Audio Coding 3
Расширение режима : CM (complete main)
Параметр Endianness формата : Big
Идентификатор кодека : 2000
Продолжительность : 1 ч. 16 м.
Вид битрейта : Постоянный
Битрейт : 192 Кбит/сек
Каналы : 2 канала
Расположение каналов : Front: L R
Частота : 48,0 КГц
Частота кадров : 31,250 кадров/сек (1536 spf)
Метод сжатия : С потерями
Размер потока : 105 Мбайт (7%)
Выравнивание : Разделение по промежуткам
Продолжительность промежутка : 40 мс. (1,00 видеокадр)
Время предзагрузки промежутка : 500 мс.
Заголовок : Профессиональный (полное дублирование)

Скриншоты


[Профиль] [ЛС]
Кто просматривает тему:

Форум Тема Автор Размер
Rock Включай Микрофон! - Приступы гуманизма (2015) MP3 достали все 91 MB
Флора и фауна Дорога из приюта / Pound Pups to Dog Stars (1-8 серии из 10) (Николай Гриффин / Nicola Griffin) [2013, Документальный, пристройство бездомных собак, TVRip] reversefile 2.51 GB
Фильмы 2014 года Кровавое пристанище / Blood Shed (Патрик Хассон / Patrick Hasson) [2014, США, Ужасы, WEB-DLRip] VO bot 1.36 GB
Фильмы (HD Rips | 720p, 1080p) Непристойное поведение / Disturbing Behavior (1998) BDRip 720p | P2, A Russian Mafia 4.37 GB
Фильмы 2016 года Пристальный взгляд / Nozokime (2016) WEB-DLRip | L2 достали все 818 MB
Фильмы 2014 года Пристегните ремни / Allacciate le cinture (Ферзан Озпетек / Ferzan Ozpetek) [2014, Италия, Мелодрама, HDRip] Dub (R5) TorrentFilm 1.46 GB
Документальные HD Юрий Яковлев. Последняя пристань (Олег Шиловский) [2015, Документальный, HDTV 1080i] TorrentFilm 3.68 GB
Документальные HD Юрий Яковлев: Последняя Пристань (Олег Шиловский) [2015, Документальный, HDTV 720p] TorrentFilm 1.52 GB
Показать сообщения:    

Текущее время: Сегодня 12:08

Часовой пояс: GMT



Вы не можете начинать темы
Вы не можете отвечать на сообщения
Вы не можете редактировать свои сообщения
Вы не можете удалять свои сообщения
Вы не можете голосовать в опросах
Вы не можете прикреплять файлы к сообщениям
Вы не можете скачивать файлы