Пристегните ремни / Allacciate le cinture (Ферзан Озпетек / Ferzan Ozpetek) [2014, Италия, Мелодрама, HDRip] Dub (R5)

 
Автор Сообщение

TorrentFilm ®

Пол:

Стаж: 2 года

Сообщений: 7741



Награды: Нет

Торрент-статистика

Создавать темы 30-Дек-2014 00:01

[Цитировать]

--Пристегните ремни / Allacciate le cinture--«История любви, которая может лишить вас сна»- Страна: Италия
Жанр: Мелодрама
Год выпуска: 2014
Продолжительность: 01:50:53-Перевод: Профессиональный (дублированный) Лицензия, R5
Cубтитры: нет
Оригинальная аудиодорожка: нет-Режиссер: Ферзан Озпетек / Ferzan Ozpetek-В ролях: Касия Смутняк, Франческо Арка, Филиппо Шиккьятано, Каролина Крешентини, Паола Миначчони, Елена София Риччи, Франческо Шианна, Карла Синьорис, Луиза Раньери, Джулия Микелини
Описание: Елена и Антонио точно не созданы друг для друга. Она — интеллигентная девушка из хорошей семьи, он — чувственное животное, хамоватый неграмотный механик. Они абсолютно разные — по характеру, жизненным приоритетам, отношению к миру. И, тем не менее, чувствуют непреодолимое взаимное притяжение, хотя всячески пытаются с ним справиться. Не только потому, что между ними нет ничего общего, но и по более важным причинам: у Елены роман с архитектором Джорджио, а Антонио встречается с ее лучшей подругой Сильвией. Однако страсть сильнее — и молодые люди женятся. Спустя несколько лет Елена понимает, что, возможно, совершила трагическую ошибку…
-|Сэмпл|IMDB|КиноПоиск|
-Качество видео: HDRip
Формат видео: AVI
Видео: 720x304 (2.37:1), 23.976 fps, XviD build 50 ~1422 kbps avg, 0.27 bit/pixel
Аудио: 48 kHz, AC3 Dolby Digital, 3/2 (L,C,R,l,r) + LFE ch, ~448 kbps

MediaInfo

Общее
Полное имя : F:\BD torrent\mytorrentsup\Pristegnite.remni.2014.D.HDRip.avi
Формат : AVI
Формат/Информация : Audio Video Interleave
Размер файла : 1,46 Гбайт
Продолжительность : 1 ч. 50 м.
Общий поток : 1880 Кбит/сек
Название фильма : P
Режиссёр : [
Видео
Идентификатор : 0
Формат : MPEG-4 Visual
Профиль формата : Advanced Simple@L5
Параметр BVOP формата : 4
Параметр QPel формата : Нет
Параметр GMC формата : Без точки перехода
Параметр матрицы формата : Default (MPEG)
Идентификатор кодека : XVID
Идентификатор кодека/Подсказка : XviD
Продолжительность : 1 ч. 50 м.
Битрейт : 1423 Кбит/сек
Ширина : 720 пикселей
Высота : 304 пикселя
Соотношение сторон : 2,35:1
Частота кадров : 23,976 кадра/сек
Цветовое пространство : YUV
Субдискретизация насыщенности : 4:2:0
Битовая глубина : 8 бит
Тип развёртки : Прогрессивная
Метод сжатия : С потерями
Бит/(Пиксели*Кадры) : 0.271
Размер потока : 1,10 Гбайт (76%)
Библиотека кодирования : XviD 1.2.1 (UTC 2008-12-04)
Аудио
Идентификатор : 1
Формат : AC-3
Формат/Информация : Audio Coding 3
Расширение режима : CM (complete main)
Параметр Endianness формата : Big
Идентификатор кодека : 2000
Продолжительность : 1 ч. 50 м.
Вид битрейта : Постоянный
Битрейт : 448 Кбит/сек
Каналы : 6 каналов
Расположение каналов : Front: L C R, Side: L R, LFE
Частота : 48,0 КГц
Битовая глубина : 16 бит
Метод сжатия : С потерями
Размер потока : 355 Мбайт (24%)
Выравнивание : Соединение по промежуткам
Продолжительность промежутка : 42 мс. (1,00 видеокадр)
Время предзагрузки промежутка : 512 мс.

Скриншот c названием фильма

Скриншоты

[Профиль] [ЛС]
Кто просматривает тему:

Форум Тема Автор Размер
Rock Включай Микрофон! - Приступы гуманизма (2015) MP3 достали все 91 MB
Флора и фауна Дорога из приюта / Pound Pups to Dog Stars (1-8 серии из 10) (Николай Гриффин / Nicola Griffin) [2013, Документальный, пристройство бездомных собак, TVRip] reversefile 2.51 GB
Фильмы 2014 года Кровавое пристанище / Blood Shed (Патрик Хассон / Patrick Hasson) [2014, США, Ужасы, WEB-DLRip] VO bot 1.36 GB
Фильмы (HD Rips | 720p, 1080p) Непристойное поведение / Disturbing Behavior (1998) BDRip 720p | P2, A Russian Mafia 4.37 GB
Фильмы 2016 года Пристальный взгляд / Nozokime (2016) WEB-DLRip | L2 достали все 818 MB
Фильмы 2014 года Пристегните ремни / Allacciate le cinture (Ферзан Озпетек / Ferzan Ozpetek) [2014, Италия, Мелодрама, HDRip] Dub (R5) TorrentFilm 746 MB
Фильмы 2011 года Пристрели их / Shoot \'Em Up (Майкл Дэвис / Michael Davis) [2007, США, боевик, триллер, комедия, криминал, SATRip] [Open Matte] Dub TorrentFilm 1.37 GB
Документальные HD Юрий Яковлев. Последняя пристань (Олег Шиловский) [2015, Документальный, HDTV 1080i] TorrentFilm 3.68 GB
Показать сообщения:    

Текущее время: Сегодня 11:06

Часовой пояс: GMT



Вы не можете начинать темы
Вы не можете отвечать на сообщения
Вы не можете редактировать свои сообщения
Вы не можете удалять свои сообщения
Вы не можете голосовать в опросах
Вы не можете прикреплять файлы к сообщениям
Вы не можете скачивать файлы