Принц / The Prince (Брайан А. Миллер / Brian A. Miller) [2014, США, Боевик, WEB-DLRip] VO (Andi)

 
Автор Сообщение

painkiller ®

Стаж: 2 года 3 месяца

Сообщений: 582



Награды: Нет

Торрент-статистика

Создавать темы 26-Авг-2014 01:02

[Цитировать]

Принц / The Prince
Страна: США
Жанр: Боевик
Год выпуска: 2014
Продолжительность: 01:30:38
Перевод: Одноголосый закадровый (Andi)
Cубтитры: нет
Режиссер: Брайан А. Миллер / Brian A. Miller
В ролях: Джейсон Патрик, Брюс Уиллис, Джон Кьюсак, Фифти Сент, Рэйн, Джессика Лаундес, Джонатон Шек, Джина Мантенья
Описание: Пол давно порвал с темным прошлым и ведет честную жизнь, неожиданные обстоятельства вынуждают его отправиться на поиски пропавшей дочери. Так он оказывается в городе, где не был 20 лет, и где до сих пор его помнят и жаждут свести с ним счеты старые друзья и недруги.
Дополнительная информация: фильм direct to DVD. Просьба это учесть и не предъявлять к картине завышенных требований (хотя актерский состав и обязывает...)
В ряде стран фильм выходит в прокат (Прибалтика, Тайвань, Южная Корея), в США и Канаде релиз состоялся сразу на dvd и в платных он-лайн кинотеатрах (video on demand)
Фильм прекрасно подойдет, чтобы скоротать вечер
Над релизом работали:
перевод: М. Васильев
озвучка: Andi
Релиз-группа

желает всем приятного просмотра
Сэмпл: https://yadi.sk/i/5DvpFOdGaJV4m
Качество видео: WEB-DLRip
Формат видео: AVI
Видео: 938 Kbps, 640x272 (2.35:1) 23 976 fps, MPEG 4 XviD
Аудио: 448 Kbps, 48.0 KHz, 16 bits, 6 ch, AC 3

MediaInfo

General
Complete name : C:\Users\Владелец\Downloads\prince2014.avi
Format : AVI
Format/Info : Audio Video Interleave
File size : 905 MiB
Duration : 1h 30mn
Overall bit rate : 1 396 Kbps
Video
ID : 0
Format : MPEG-4 Visual
Format profile : Advanced Simple@L5
Format settings, BVOP : 2
Format settings, QPel : No
Format settings, GMC : No warppoints
Format settings, Matrix : Default (H.263)
Codec ID : XVID
Codec ID/Hint : XviD
Duration : 1h 30mn
Bit rate : 938 Kbps
Width : 640 pixels
Height : 272 pixels
Display aspect ratio : 2.35:1
Frame rate : 23.976 fps
Color space : YUV
Chroma subsampling : 4:2:0
Bit depth : 8 bits
Scan type : Progressive
Compression mode : Lossy
Bits/(Pixel*Frame) : 0.225
Stream size : 608 MiB (67%)
Writing library : XviD 65
Audio
ID : 1
Format : AC-3
Format/Info : Audio Coding 3
Mode extension : CM (complete main)
Format settings, Endianness : Big
Codec ID : 2000
Duration : 1h 30mn
Bit rate mode : Constant
Bit rate : 448 Kbps
Channel(s) : 6 channels
Channel positions : Front: L C R, Side: L R, LFE
Sampling rate : 48.0 KHz
Bit depth : 16 bits
Compression mode : Lossy
Stream size : 290 MiB (32%)
Alignment : Split accross interleaves
Interleave, duration : 42 ms (1.00 video frame)
Interleave, preload duration : 500 ms

Скриншот c названием фильма

Скриншоты




[Профиль] [ЛС]
Показать сообщения:    

Текущее время: Сегодня 08:03

Часовой пояс: GMT



Вы не можете начинать темы
Вы не можете отвечать на сообщения
Вы не можете редактировать свои сообщения
Вы не можете удалять свои сообщения
Вы не можете голосовать в опросах
Вы не можете прикреплять файлы к сообщениям
Вы не можете скачивать файлы