Принц / The Prince (2014) WEB-DL [H.264/720p-LQ] [VO]

 
Автор Сообщение

sergej644 ®

Пол:

Стаж: 4 года 11 месяцев

Сообщений: 6039

Откуда: Soviet Union



Награды: Нет

Торрент-статистика

Создавать темы 24-Авг-2014 08:44

[Цитировать]

-Принц / The Prince (2014) WEB-DL [H.264/720p-LQ]- Год выпуска: 2014
Производство: США, Aperture Entertainment, Emmett/Furla Films, Grindstone Entertainment Group, Oasis Films
Жанр: Боевик, Триллер
Перевод: Одноголосый закадровый, любительский (Andi)
Субтитры: Вшитые отключаемые
Язык субтитров: Английский
Дата мировой премьеры: 22 августа 2014
Режиссер: Брайан А Миллер
Продюсер: Рэндолл Эмметт, Джордж Фурла, Адам Голдворм
Актеры: Джейсон Патрик, Брюс Уиллис, Джон Кьюсак, Фифти Сент, Рэйн, Джессика Лаундес, Джонатон Шек, Джина Мантенья
Описание фильма:
Согласно сюжету, бывший головорез из Лас-Вегаса возвращается домой и обнаруживает, что его дочь похищена.

Рейтинг MPAA: PG-17
Продолжительность: 01:30:38
Качество видео: WEB-DL
Видеокодек: MPEG-4 AVC/H.264
Битрейт видео: 3844 kb/s
Размер кадра: 1280x532
Audio #1: 48 kHz, AC3 Dolby Digital, 3/2 (L,C,R,l,r) + LFE ch, ~384 kbps (Русский) / Одноголосый
Audio #2: 48 kHz, AC3 Dolby Digital, 3/2 (L,C,R,l,r) + LFE ch, ~384 kbps (Английский) / Оригинал

MI

Общее
Уникальный идентификатор                 : 199768209437252074104143472774397461741 (0x9649F5287F2FB1D38960CD7987C684ED)
Полное имя                               : D:\Раздачи\Принц.2014..WEB-DL.720p.NNM-CLUB.mkv
Формат                                   : Matroska
Версия формата                           : Version 4 / Version 2
Размер файла                             : 2,98 Гбайт
Продолжительность                        : 1 ч. 30 м.
Общий поток                              : 4706 Кбит/сек
Дата кодирования                         : UTC 2014-08-24 06:36:16
Программа кодирования                    : mkvmerge v6.1.0 ('Old Devil') built on Mar  4 2013 09:10:42
Библиотека кодирования                   : libebml v1.3.0 + libmatroska v1.4.0
Видео
Идентификатор                            : 1
Формат                                   : AVC
Формат/Информация                        : Advanced Video Codec
Профиль формата                          : [url=mailto:Main@L3.1]Main@L3.1[/url]
Параметр CABAC формата                   : Нет
Параметр ReFrames формата                : 2 кадра
Идентификатор кодека                     : V_MPEG4/ISO/AVC
Продолжительность                        : 1 ч. 30 м.
Битрейт                                  : 3844 Кбит/сек
Ширина                                   : 1280 пикселей
Высота                                   : 532 пикселя
Соотношение сторон                       : 2,40:1
Режим частоты кадров                     : Постоянный
Частота кадров                           : 23,976 кадра/сек
Цветовое пространство                    : YUV
Субдискретизация насыщенности            : 4:2:0
Битовая глубина                          : 8 бит
Тип развёртки                            : Прогрессивная
Бит/(Пиксели*Кадры)                      : 0.235
Размер потока                            : 2,43 Гбайт (82%)
Язык                                     : English
Default                                  : Да
Forced                                   : Нет
Основные цвета                           : BT.709
Характеристики трансфера                 : BT.709
Коэффициенты матрицы                     : BT.709
Аудио #1
Идентификатор                            : 2
Формат                                   : AC-3
Формат/Информация                        : Audio Coding 3
Расширение режима                        : CM (complete main)
Параметр Endianness формата              : Big
Идентификатор кодека                     : A_AC3
Продолжительность                        : 1 ч. 30 м.
Вид битрейта                             : Постоянный
Битрейт                                  : 384 Кбит/сек
Каналы                                   : 6 каналов
Расположение каналов                     : Front: L C R, Side: L R, LFE
Частота                                  : 48,0 КГц
Битовая глубина                          : 16 бит
Метод сжатия                             : С потерями
Размер потока                            : 249 Мбайт (8%)
Язык                                     : Russian
Default                                  : Да
Forced                                   : Нет
Аудио #2
Идентификатор                            : 3
Формат                                   : AC-3
Формат/Информация                        : Audio Coding 3
Расширение режима                        : CM (complete main)
Параметр Endianness формата              : Big
Идентификатор кодека                     : A_AC3
Продолжительность                        : 1 ч. 30 м.
Вид битрейта                             : Постоянный
Битрейт                                  : 384 Кбит/сек
Каналы                                   : 6 каналов
Расположение каналов                     : Front: L C R, Side: L R, LFE
Частота                                  : 48,0 КГц
Битовая глубина                          : 16 бит
Метод сжатия                             : С потерями
Размер потока                            : 249 Мбайт (8%)
Язык                                     : English
Default                                  : Нет
Forced                                   : Нет
Текст
Идентификатор                            : 4
Формат                                   : UTF-8
Идентификатор кодека                     : S_TEXT/UTF8
Идентификатор кодека/Информация          : UTF-8 Plain Text
Язык                                     : English
Default                                  : Нет
Forced                                   : Нет
Меню
00:00:00.000                             : en:Chapter 1
00:03:34.000                             : en:Chapter 2
00:10:00.000                             : en:Chapter 3
00:20:16.000                             : en:Chapter 4
00:29:34.000                             : en:Chapter 5
00:42:07.000                             : en:Chapter 6
00:50:16.000                             : en:Chapter 7
00:58:12.000                             : en:Chapter 8
01:06:04.000                             : en:Chapter 9
01:15:07.000                             : en:Chapter 10
01:27:07.000                             : en:Chapter 11
Скриншоты: Время раздачи: 24/7,
до 5 скачавших.
[Профиль] [ЛС]
Показать сообщения:    

Текущее время: Сегодня 16:36

Часовой пояс: GMT



Вы не можете начинать темы
Вы не можете отвечать на сообщения
Вы не можете редактировать свои сообщения
Вы не можете удалять свои сообщения
Вы не можете голосовать в опросах
Вы не можете прикреплять файлы к сообщениям
Вы не можете скачивать файлы