Принц Сибири (2015) SATRip (серии 1-4 из 20) (обновляемая)

 
Автор Сообщение

Richi Keeper ®

Пол:

Стаж: 1 год 6 месяцев

Сообщений: 57

Откуда: Томская область



Награды: Нет

Торрент-статистика

Создавать темы 14-Май-2015 20:32

[Цитировать]

-Принц Сибири (2015) SATRip- Производство: Россия / "АМЕДИА"
Жанр: комедия
Режиссер: Павел Смирнов, Денис Елеонский
Актеры: Иван Жидков, Алина Кизиярова, Кирилл Нагиев, Владимир Литвинов, Кристина Кузьмина, Александр Нестеров, Филипп Дьячков, Екатерина Рябова, Елена Симонова, Андрей Аверков, Василий Кортуков, Алексей Симонов
Описание:
Талантливого программиста Максима подставляет близкий друг: на него начинает охоту влиятельный олигарх Бушуев, который твёрдо уверен в том, что Макс не только присвоил себе его деньги, но и положил глаз на его жену. Единственный шанс на спасение – бежать из шумного Питера в глухую деревню в Сибири в надежде, что там он будет в безопасности. Новичок из большого города, не привыкший к отсутствию гаджетов и Интернета, вызывает много вопросов у местных жителей. Пытаясь вписаться, Макс устраивается на работу на лесопилку, которая, как вскоре выясняется, принадлежит Бушуеву…

Дата российской премьеры: 11 мая 2015
Качество видео: SATRip
Продолжительность: ~00:45:00 серия
Видеокодек: XviD
Битрейт видео: ~1800 kbps avg, 0.25 bit/pixel
Размер кадра: 720x400 (1.80:1), 25 fps
Аудиокодек: МР3, 2 ch
Битрейт аудио: 128 kbps

MediaInfo

Общее
Полное имя                               : D:\Принц Сибири\Princ.Sibiri.01.SATRip..avi
Формат                                   : AVI
Формат/Информация                        : Audio Video Interleave
Размер файла                             : 625 Мбайт
Продолжительность                        : 45 м.
Общий поток                              : 1938 Кбит/сек
Программа кодирования                    : VirtualDubMod 1.5.10.3 | [url=http://www.virtualdub-fr.org]www.virtualdub-fr.org[/url] || (build 2550/release)
Библиотека кодирования                   : VirtualDubMod build 2550/release
Видео
Идентификатор                            : 0
Формат                                   : MPEG-4 Visual
Профиль формата                          : Advanced Simple@L5
Параметр BVOP формата                    : 2
Параметр QPel формата                    : Нет
Параметр GMC формата                     : Без точки перехода
Параметр матрицы формата                 : Default (MPEG)
Идентификатор кодека                     : XVID
Идентификатор кодека/Подсказка           : XviD
Продолжительность                        : 45 м.
Битрейт                                  : 1800 Кбит/сек
Ширина                                   : 720 пикселей
Высота                                   : 400 пикселей
Соотношение сторон                       : 16:9
Частота кадров                           : 25,000 кадров/сек
Цветовое пространство                    : YUV
Субдискретизация насыщенности            : 4:2:0
Битовая глубина                          : 8 бит
Тип развёртки                            : Прогрессивная
Метод сжатия                             : С потерями
Бит/(Пиксели*Кадры)                      : 0.250
Размер потока                            : 580 Мбайт (93%)
Библиотека кодирования                   : XviD 1.2.1 (UTC 2008-12-04)
Аудио
Идентификатор                            : 1
Формат                                   : MPEG Audio
Версия формата                           : Version 1
Профиль формата                          : Layer 3
Режим                                    : Joint stereo
Расширение режима                        : MS Stereo
Идентификатор кодека                     : 55
Идентификатор кодека/Подсказка           : MP3
Продолжительность                        : 45 м.
Вид битрейта                             : Постоянный
Битрейт                                  : 128 Кбит/сек
Каналы                                   : 2 канала
Частота                                  : 48,0 КГц
Метод сжатия                             : С потерями
Размер потока                            : 41,3 Мбайт (7%)
Выравнивание                             : Соединение по промежуткам
Продолжительность промежутка             : 40  мс. (1,00 видеокадр)
Время предзагрузки промежутка            : 504  мс.
Библиотека кодирования                   : LAME3.99r
Настройки программы                      : -m j -V 4 -q 9 -lowpass 17 -b 128

Внимание! Раздача ведётся путём добавления новых серий

Внимание! Раздача ведётся путём добавления новых серий; при каждом добавлении создаётся новый торрент.
Чтобы начать докачку новой серии, пользователям необходимо сделать следующее:
1. Остановить скачивание;
2. Удалить старый торрент у себя из клиента (старые серии удалять не надо);
3. Скачать новый торрент и запустить его у себя в клиенте вместо старого, при этом указать клиенту путь в старую папку куда и должно происходить скачивание новых серий. Ваш клиент при этом должен произвести хеширование (проверку) старой папки и будет докачивать только те серии, которых у вас ещё нет. Старые серии при этом не удаляются, а продолжают раздаваться! Eсли вы уже удалили старые серии, то предотвратить повторную закачку старых серий можно, отжав галочку в соответствующих местах при запуске нового торрента.

Скриншоты


[Профиль] [ЛС]
Показать сообщения:    

Текущее время: Сегодня 15:56

Часовой пояс: GMT



Вы не можете начинать темы
Вы не можете отвечать на сообщения
Вы не можете редактировать свои сообщения
Вы не можете удалять свои сообщения
Вы не можете голосовать в опросах
Вы не можете прикреплять файлы к сообщениям
Вы не можете скачивать файлы