Принцесса на горошине / Die Prinzessin auf der Erbse (Бодо Фюрнайзен / Bodo Fürneisen) [2010, Германия, сказка, детский, семейный, DVDRip] DVO (Компания "Игмар") + Original Ger

 
Автор Сообщение

TorrentFilm ®

Пол:

Стаж: 1 год 11 месяцев

Сообщений: 7741



Награды: Нет

Торрент-статистика

Создавать темы 05-Фев-2015 00:00

[Цитировать]

Принцесса на горошине / Die Prinzessin auf der Erbse
Страна: Германия
Жанр: сказка, детский, семейный
Год выпуска: 2010
Продолжительность: 00:58:31
Перевод: Профессиональный (двухголосый закадровый) Компания "Игмар"
Cубтитры: нет
Оригинальная аудиодорожка: немецкий
Режиссер: Бодо Фюрнайзен / Bodo Fürneisen
В ролях: Рик Клостер, Роберт Гвиздек, Айрис Бербен, Михаэль Гвиздек, Давид К. Буннерс, Рената Рихтер, Ульрих Виггерс, Томас Арнольд, Питер Циммерман, Альфонс Еше...
Описание: Королевству грозит катастрофа: жадная и нечестная на руку сестра короля вознамерилась унаследовать трон. Согласно старинному договору, король в свой семидесятый день рождения должен уйти в отставку, чтобы освободить трон для своего сына. Однако для того, чтобы стать королём, молодой принц должен жениться в день своей коронации. До дня рождения короля осталось не так много времени, а принц, который хочет жениться только по любви, ещё не определился с выбором невесты…
Сэмпл: http://multi-up.com/1031086
Качество видео: DVDRip
Формат видео: AVI
Видео: MPEG4, XviD, 704x384 (16/9), 25.000 fps, 1 569 Kbps (0.232 bit/pixel)
Аудио: AC-3, 48.0 KHz, 2 ch, 192 Kbps, CBR - русский
Аудио 2: AC-3, 48.0 KHz, 2 ch, 224 Kbps, CBR - немецкий (отдельным файлом)

MediaInfo

Общее
Полное имя : K:\Принцесса на горошине.avi
Формат : AVI
Формат/Информация : Audio Video Interleave
Размер файла : 741 Мбайт
Продолжительность : 58 м.
Общий поток : 1771 Кбит/сек
Название фильма : Принцесса на горошине / Die Prinzessin auf der Erbse (2010)
Программа кодирования : VirtualDubMod 1.5.10.2 (build 2540/release)
Библиотека кодирования : VirtualDubMod build 2540/release
Правообладатель : miha2154
Видео
Идентификатор : 0
Формат : MPEG-4 Visual
Профиль формата : Advanced Simple@L5
Параметр BVOP формата : 1
Параметр QPel формата : Нет
Параметр GMC формата : Без точки перехода
Параметр матрицы формата : Выборочная
Идентификатор кодека : XVID
Идентификатор кодека/Подсказка : XviD
Продолжительность : 58 м.
Битрейт : 1569 Кбит/сек
Ширина : 704 пикселя
Высота : 384 пикселя
Соотношение сторон : 1,85:1
Частота кадров : 25,000 кадров/сек
Цветовое пространство : YUV
Субдискретизация насыщенности : 4:2:0
Битовая глубина : 8 бит
Тип развёртки : Прогрессивная
Метод сжатия : С потерями
Бит/(Пиксели*Кадры) : 0.232
Размер потока : 657 Мбайт (89%)
Библиотека кодирования : XviD 65
Аудио
Идентификатор : 1
Формат : AC-3
Формат/Информация : Audio Coding 3
Расширение режима : CM (complete main)
Параметр Endianness формата : Big
Идентификатор кодека : 2000
Продолжительность : 58 м.
Вид битрейта : Постоянный
Битрейт : 192 Кбит/сек
Каналы : 2 канала
Расположение каналов : Front: L R
Частота : 48,0 КГц
Битовая глубина : 16 бит
Метод сжатия : С потерями
Размер потока : 80,4 Мбайт (11%)
Выравнивание : Разделение по промежуткам
Продолжительность промежутка : 40 мс. (1,00 видеокадр)
Время предзагрузки промежутка : 500 мс.
Заголовок : Профессиональный (двухголосый закадровый) Gulli

Скриншоты

[Профиль] [ЛС]

Создавать темы 06-Авг-2015 22:47 (спустя 6 месяцев 1 день)

Топик был перенесен из форума Фильмы до 2014 года в форум Фильмы до 2012 года
sergej644
 

Создавать темы 12-Июн-2016 07:54 (спустя 1 год 4 месяца)

Топик был перенесен из форума Фильмы 2011 года в форум Фильмы 2010 года
Russian Mafia
 
Показать сообщения:    

Текущее время: Сегодня 20:04

Часовой пояс: GMT



Вы не можете начинать темы
Вы не можете отвечать на сообщения
Вы не можете редактировать свои сообщения
Вы не можете удалять свои сообщения
Вы не можете голосовать в опросах
Вы не можете прикреплять файлы к сообщениям
Вы не можете скачивать файлы