Принцесса на горошине / Die Prinzessin auf der Erbse (Бодо Фюрнайзен / Bodo Fürneisen) [2010, сказка, детский, семейный, DVB] MVO (Игмар)

 
Автор Сообщение

TorrentFilm ®

Пол:

Стаж: 2 года

Сообщений: 7741



Награды: Нет

Торрент-статистика

Создавать темы 27-Янв-2015 00:01

[Цитировать]

Принцесса на горошине / Die Prinzessin auf der Erbse- Страна: Германия
Жанр: сказка, детский, семейный
Год выпуска: 2010
Продолжительность: 00:58:30
Перевод: Профессиональный (многоголосый закадровый) - Компания "Игмар" / Канал "Gulli"
Cубтитры: нет-Режиссер: Бодо Фюрнайзен / Bodo Fürneisen
В ролях: Рик Клостер, Роберт Гвиздек, Айрис Бербен, Михаэль Гвиздек, Давид К. Буннерс, Рената Рихтер, Ульрих Виггерс, Томас Арнольд, Питер Циммерман, Альфонс Еше...- | Релиз: -Описание: Королевству грозит катастрофа: жадная и нечестная на руку сестра короля вознамерилась унаследовать трон. Согласно старинному договору, король в свой семидесятый день рождения должен уйти в отставку, чтобы освободить трон для своего сына. Однако для того, чтобы стать королём, молодой принц должен жениться в день своей коронации. До дня рождения короля осталось не так много времени, а принц, который хочет жениться только по любви, ещё не определился с выбором невесты…-Семпл: http://multi-up.com/1029298-Качество видео: DVB (Канал "Gulli")
Формат видео: MPG
Видео: 720x576 (4:3) @ 768x576, 25.000 fps, MPEG-2 Video, ~2863 Kbps, 0.276 bits/pixel
Аудио: Русский, 48.0 KHz, MPEG-1 Audio layer 2, 2 ch, 192 Kbps

MediaInfo

GeneralComplete name : Die Prinzessin auf der Erbse 2010 Gulli MVO Igmar.mpgFormat : MPEG-PSFile size : 1.27 GiBDuration : 58mn 30sOverall bit rate mode : VariableOverall bit rate : 3 117 Kbps
VideoID : 224 (0xE0)Format : MPEG VideoFormat version : Version 2Format profile : Main@MainFormat settings, BVOP : YesFormat settings, Matrix : CustomFormat settings, GOP : VariableFormat settings, picture structure : FrameDuration : 58mn 30sBit rate mode : VariableBit rate : 2 863 KbpsMaximum bit rate : 15.0 MbpsWidth : 720 pixelsHeight : 576 pixelsDisplay aspect ratio : 4:3Frame rate : 25.000 fpsStandard : PALColor space : YUVChroma subsampling : 4:2:0Bit depth : 8 bitsScan type : InterlacedScan order : Top Field FirstCompression mode : LossyBits/(Pixel*Frame) : 0.276Time code of first frame : 00:00:00:00Time code source : Group of pictures headerGOP, Open/Closed : OpenStream size : 1.17 GiB (92%)GOP, Open/Closed of first frame : Closed
AudioID : 192 (0xC0)Format : MPEG AudioFormat version : Version 1Format profile : Layer 2Duration : 58mn 30sBit rate mode : ConstantBit rate : 192 KbpsChannel(s) : 2 channelsSampling rate : 48.0 KHzCompression mode : LossyStream size : 80.3 MiB (6%)

Скриншоты

[Профиль] [ЛС]

Создавать темы 06-Авг-2015 22:47 (спустя 6 месяцев 10 дней)

Топик был перенесен из форума Фильмы до 2014 года в форум Фильмы до 2012 года
sergej644
 

Создавать темы 12-Июн-2016 07:54 (спустя 1 год 4 месяца)

Топик был перенесен из форума Фильмы 2011 года в форум Фильмы 2010 года
Russian Mafia
 
Показать сообщения:    

Текущее время: Сегодня 02:18

Часовой пояс: GMT



Вы не можете начинать темы
Вы не можете отвечать на сообщения
Вы не можете редактировать свои сообщения
Вы не можете удалять свои сообщения
Вы не можете голосовать в опросах
Вы не можете прикреплять файлы к сообщениям
Вы не можете скачивать файлы