Принцесса Монако / Grace of Monaco (Оливье Даан / Olivier Dahan) [2014 г., биография, драма, HDTV 1080i]

 
Автор Сообщение

E.S.P. ®

Пол:

Стаж: 2 года 5 месяцев

Сообщений: 41



Награды: Нет

Торрент-статистика

Создавать темы 05-Июл-2014 14:55

[Цитировать]

--Принцесса Монако / Grace of Monaco-- Год выпуска: 2014 г.
Страна: США, Италия, Бельгия, Франция
Жанр: биография, драма
Продолжительность: 01:37:16
Перевод: Дублированное
Cубтитры: нет--Режиссер: Оливье Даан / Olivier Dahan--В ролях: Николь Кидман (Grace Kelly), Майло Вентимилья (Rupert Allan), Тим Рот (Prince Rainier III), Паркер Поузи (Madge Tivey-Faucon), Пас Вега (Maria Callas), Дерек Джекоби (Count Fernando D'Aillieres), Фрэнк Ланджелла (Father Francis Tucker), Джеральдин Сомервилль (Princess Antoinette), Роджер Эштон-Гриффитс (Alfred Hitchcock), Николас Фэррел (Jean-Charles Rey), ...--Описание: Красивая история о Грейс Келли, знаменитой голливудской кинозвезде, у которой были большие перспективы, множество цветов, денег хватало на малейшие прихоти, не было отбою от визжащих поклонников. жизнь щедра:у нее было все, что надо, что хочет звезда. Но судьба уготовила ей вовсе не такой путь...События кинокартины происходят в 1962 году, когда очаровательная Грейс уже была супругой князя Монако и помогает мужу уравновесить конфликт с Шарлем де Голлем, тогочастным лидером Франции. Кинокартина повествует о уме и мудрости Грейс, о ее политической подкованности, верности своему супругу и своей стране. Это фильм про любовь, про нежные чувства, про самоотдачу. Прекрасно оформлен на фоне исторических событий.--Качество видео: HDTV 1080i
Формат видео: MKV
Видео кодек: AVC (High@L4.0)
Аудио кодек: AC-3
Видео: AVC, 1920x1080 (16:9), 25.000 fps, 6 688 Kbps (0.129 bit/pixel)
Аудио: AC-3, 48.0 KHz, 6 ch, 384 Kbps, CBR, 16 бит [RUS]
-- --

Знаете ли Вы, что...

* В 2011 году сценарий фильма был в голливудском «Черном списке» самых интересных нереализованных сценариев года.
* Джессика Честейн, Эмили Блант, Шарлиз Терон, Риз Уизерспун, Гвинет Пэлтроу, Кейт Хадсон, Розамунд Пайк, Эми Адамс, Дженьюэри Джонс и Элизабет Бэнкс рассматривались на роль Грэйс Келли.
* По совпадению, съемки начались в день тридцатилетия со дня смерти Грэйс Келли.
* Изначально фильм планировали выпустить осенью 2013 года, но, из-за разногласий между режиссером Оливье Дааном и дистрибьютором Харви Вайнштейном по поводу финальной версии монтажа, релиз фильма был отложен.
* По словам Николь Кидман фильм не является ни документальным, ни биографическим. Он является исследованием уязвимости и человечности Грэйс Келли.
* Фильм был выбран в качестве фильма открытия Каннского кинофестиваля.

Скриншоты

Тех. данные (MI)

Общее
Идентификатор : 1 (0x1)
Полное имя : E:\тест\Princessa.Monako.2014.HDTV.1080i.ts
Формат : MPEG-TS
Размер файла : 5,14 Гбайт
Продолжительность : 1 ч. 38 м.
Режим общего битрейта : Переменный
Общий поток : 7443 Кбит/сек
Видео
Идентификатор : 1812 (0x714)
Идентификатор меню : 1 (0x1)
Формат : AVC
Формат/Информация : Advanced Video Codec
Профиль формата : High@L4.0
Параметр CABAC формата : Да
Параметр ReFrames формата : 4 кадра
Идентификатор кодека : 27
Продолжительность : 1 ч. 38 м.
Битрейт : 6688 Кбит/сек
Ширина : 1920 пикселей
Высота : 1080 пикселей
Соотношение сторон : 16:9
Частота кадров : 25,000 кадров/сек
Стандарт вещания : Component
Цветовое пространство : YUV
Субдискретизация насыщенности : 4:2:0
Битовая глубина : 8 бит
Тип развёртки : MBAFF
Бит/(Пиксели*Кадры) : 0.129
Размер потока : 4,61 Гбайт (90%)
Основные цвета : BT.709
Характеристики трансфера : BT.709
Коэффициенты матрицы : BT.709
Аудио
Идентификатор : 4812 (0x12CC)
Идентификатор меню : 1 (0x1)
Формат : AC-3
Формат/Информация : Audio Coding 3
Расширение режима : CM (complete main)
Параметр Endianness формата : Big
Идентификатор кодека : 6
Продолжительность : 1 ч. 38 м.
Вид битрейта : Постоянный
Битрейт : 384 Кбит/сек
Каналы : 6 каналов
Расположение каналов : Front: L C R, Side: L R, LFE
Частота : 48,0 КГц
Битовая глубина : 16 бит
Метод сжатия : С потерями
Размер потока : 271 Мбайт (5%)
Язык : Russian
[Профиль] [ЛС]
Показать сообщения:    

Текущее время: Сегодня 10:08

Часовой пояс: GMT



Вы не можете начинать темы
Вы не можете отвечать на сообщения
Вы не можете редактировать свои сообщения
Вы не можете удалять свои сообщения
Вы не можете голосовать в опросах
Вы не можете прикреплять файлы к сообщениям
Вы не можете скачивать файлы