Принцесса Лебедь: Пират или принцесса? / The Swan Princess: Princess Tomorrow, Pirate Today! (2016) WEB-DLRip | iTunes

 
Автор Сообщение

Russian Mafia ®

Пол:

Стаж: 1 год 8 месяцев

Сообщений: 4247



Награды: 10 (Подробнее)

Mega Seeder 4 (Количество: 1) Mega Seeder 3 (Количество: 1) Top Releaser 4 (Количество: 1)
Торрент-статистика

Создавать темы 15-Окт-2016 18:10

[Цитировать]

Информация о фильме
Название: Принцесса Лебедь: Пират или принцесса?
Оригинальное название: The Swan Princess: Princess Tomorrow, Pirate Today!
Год выхода: 2016
Жанр: Мультфильм, семейный
Режиссер: Ричард Рич
В ролях: Лора Бэйли, Максин Блу, Grant Durazzo, Келлен Гофф, Jayden Isabel, Гарднер Джаэс, Клэйтон Джеймс, Катрин Лавин
О фильме:
Когда родители уезжают на лето, юная любительница приключений принцесса Алиса остается под присмотром королевы Уберты, которая пытается воспитывать ее в лучших монарших традициях. Но принцесса скучает и мечтает сдать удалым пиратом. Вместе с лордом Роджерсом, лягушонком Джин-Бобом и черепашкой Спедом она отправляется в полное удивительных приключений, опасностей и открытий путешествие к дальним морям. После кораблекрушения, которое выносит отважных моряков на берег таинственного дикого острова, они встречают Лукаса – мальчика, живущего затворником. Теперь друзья должны вместе придумать, как спастись с острова, кишащего свирепыми голодными чудовищами.

Страна: США
Студия: Nest Family Entertainment
Продолжительность: 01:18:56
Перевод: Профессиональный (многоголосый, закадровый)[iTunes]
Файл
Качество: WEB-DLRip
Формат: AVI
Кодек: XviD
Видео: 720x400 (16:9), 23,976 fps, XviD ~2086 kbps avg, 0.302 bit/pixel
Аудио: AC3, 48 kHz, 2 ch, ~384.00 kbps avg | русский | Профессиональный (многоголосый, закадровый)[iTunes]
Субтитры: Отсутствуют
Семпл

Инфо-файл

Общее
Полное имя : D:The.Swan.Princess.2O16.P.WEB-DLRip.14OOMB.avi
Формат : AVI
Формат/Информация : Audio Video Interleave
Размер файла : 1,37 Гбайт
Продолжительность : 1 ч. 18 м.
Общий поток : 2479 Кбит/сек
Программа кодирования : VirtualDubMod 1.5.10.2 (build 2540/release)
Библиотека кодирования : VirtualDubMod build 2540/release
Видео
Идентификатор : 0
Формат : MPEG-4 Visual
Профиль формата : Advanced Simple@L5
Параметр BVOP формата : 2
Параметр QPel формата : Нет
Параметр GMC формата : Без точки перехода
Параметр матрицы формата : Default (MPEG)
Идентификатор кодека : XVID
Идентификатор кодека/Подсказка : XviD
Продолжительность : 1 ч. 18 м.
Битрейт : 2086 Кбит/сек
Ширина : 720 пикселей
Высота : 400 пикселей
Соотношение сторон : 16:9
Частота кадров : 23,976 кадра/сек
Цветовое пространство : YUV
Субдискретизация насыщенности : 4:2:0
Битовая глубина : 8 бит
Тип развёртки : Прогрессивная
Метод сжатия : С потерями
Бит/(Пиксели*Кадры) : 0.302
Размер потока : 1,15 Гбайт (84%)
Библиотека кодирования : XviD 1.2.1 (UTC 2008-12-04)
Аудио
Идентификатор : 1
Формат : AC-3
Формат/Информация : Audio Coding 3
Расширение режима : CM (complete main)
Параметр Endianness формата : Big
Идентификатор кодека : 2000
Продолжительность : 1 ч. 18 м.
Вид битрейта : Постоянный
Битрейт : 384 Кбит/сек
Каналы : 2 канала
Расположение каналов : Front: L R
Частота : 48,0 КГц
Метод сжатия : С потерями
Размер потока : 217 Мбайт (15%)
Выравнивание : Разделение по промежуткам
Продолжительность промежутка : 42 мс. (1,00 видеокадр)
Время предзагрузки промежутка : 500 мс.

Скриншоты

[Профиль] [ЛС]
Показать сообщения:    

Текущее время: Сегодня 02:14

Часовой пояс: GMT



Вы не можете начинать темы
Вы не можете отвечать на сообщения
Вы не можете редактировать свои сообщения
Вы не можете удалять свои сообщения
Вы не можете голосовать в опросах
Вы не можете прикреплять файлы к сообщениям
Вы не можете скачивать файлы