Принцесса для гусей / Die Gansemagd (Сибилла Тафель / Sibylle Tafel) [2009 г., Германия, детский, семейный, фэнтези, DVB] Dub

 
Автор Сообщение

reversefile ®

Пол:

Стаж: 4 года 5 месяцев

Сообщений: 842

Откуда: ReverseFile.org



Награды: Нет

Торрент-статистика

Создавать темы 13-Авг-2014 10:03

[Цитировать]

Принцесса для гусей / Die Gansemagd
Год выпуска: 2009
Страна: Германия, Hessischer Rundfunk
Жанр: детский, семейный, фэнтези
Продолжительность: 00:58:04
Перевод: профессиональный (дублированный) по заказу ЗАО «Первый канал. Всемирная сеть»
Русские субтитры: нет
Режиссёр: Сибилла Тафель / Sibylle Tafel
В ролях: Каролина Херфурт, Флориан Лукас, Сюзанне Борманн, Юлиус Рёмер, Петра Келлинг, Хенри Хюбхен, Рихард ван Вейден, Юле Дорманн, Паулина Рюммеляйн, Катрин Фильцен
Описание: королева-мать отправляет свою дочь Елизавету в далекое королевство, с принцем которого девушка должна обручиться. Принцессу сопровождает ее служанка Магдалена. По дороге она принуждает Елизавету поменяться ролями, чтобы обманом выйти замуж за принца Леопольда. В дворце короля, пока не раскрыт обман, настоящая принцесса вынуждена служить пастушкой для гусей. Но как ни старалась Магдалена скрыть свой ужасный поступок, тайна раскрылась...
Доп. информация: по мотивам сказки братьев Гримм

Трансляция спутникового канала:

Семпл: https://yadi.sk/i/82x3Lq3xY5kT4
Качество видео: DVB
Формат видео: MPEG-PS
Видео: MPEG2 Video, 720x576 (4:3), 25 fps, 4174 kbps
Аудио: MPEG Audiо, 2 сh, 48 kHz, 192 kbps

MediaInfo

General
Complete name : D:\Принцесса для гусей. (2009)_DVB by SLuMeP.mpg
Format : MPEG-PS
File size : 1.81 GiB
Duration : 58mn 3s
Overall bit rate mode : Variable
Overall bit rate : 4 454 Kbps
Video
ID : 224 (0xE0)
Format : MPEG Video
Format version : Version 2
Format profile : Main@Main
Format settings, BVOP : No
Format settings, Matrix : Custom
Format settings, GOP : M=3, N=12
Duration : 58mn 3s
Bit rate mode : Variable
Bit rate : 4 174 Kbps
Maximum bit rate : 15.0 Mbps
Width : 720 pixels
Height : 576 pixels
Display aspect ratio : 4:3
Frame rate : 25.000 fps
Standard : PAL
Color space : YUV
Chroma subsampling : 4:2:0
Bit depth : 8 bits
Scan type : Interlaced
Scan order : Top Field First
Compression mode : Lossy
Bits/(Pixel*Frame) : 0.403
Time code of first frame : 00:00:00:00
Time code source : Group of pictures header
Stream size : 1.69 GiB (94%)
Audio
ID : 192 (0xC0)
Format : MPEG Audio
Format version : Version 1
Format profile : Layer 2
Duration : 58mn 3s
Bit rate mode : Constant
Bit rate : 192 Kbps
Channel(s) : 2 channels
Sampling rate : 48.0 KHz
Compression mode : Lossy
Stream size : 79.7 MiB (4%)

Скриншоты


[Профиль] [ЛС]

Создавать темы 06-Авг-2015 23:19 (спустя 11 месяцев 24 дня)

Топик был перенесен из форума Фильмы до 2014 года в форум Фильмы до 2012 года
sergej644
 

Создавать темы 12-Июн-2016 08:13 (спустя 1 год 9 месяцев)

Топик был перенесен из форума Фильмы 2011 года в форум Фильмы 2009 года
Russian Mafia
 
Показать сообщения:    

Текущее время: Сегодня 07:00

Часовой пояс: GMT



Вы не можете начинать темы
Вы не можете отвечать на сообщения
Вы не можете редактировать свои сообщения
Вы не можете удалять свои сообщения
Вы не можете голосовать в опросах
Вы не можете прикреплять файлы к сообщениям
Вы не можете скачивать файлы