Принуждение / Duress (2009) BDRip 720p | P

 
Автор Сообщение

BOSS ®

Пол:

Стаж: 3 года 11 месяцев

Сообщений: 11883

Откуда: ODESSA



Награды: 22 (Подробнее)

Mega Seeder 3 (Количество: 1) Mega Releaser 3 (Количество: 1) Top Releaser 2 (Количество: 1)
Торрент-статистика

Создавать темы 06-Июн-2018 14:32

[Цитировать]

Информация о фильме
Название: Принуждение
Оригинальное название: Duress
Год выпуска: 2009
Жанр: триллер
Режиссёр: Джордан Баркер
В ролях: Мартин Донован, Сакис Рувас, Ариэль Уинтер, Билли Уирт, Джина Галлего, Челси Смит, Джоуи Адамс, Коул С. МакКэй
Описание:
Жена Ричарда покончила жизнь самоубийством. Он очень тяжело это переживает и пытается наладить отношения со своей дочерью. Однажды Ричард оказывается свидетелем нечеловеческой жестокости, проявленной неким Эбнером Солви. Тот решает не убивать Ричарда и даже делает его своим протеже. Теперь Ричарду приходится совершать убийства, иначе Эбнер убьет его дочь...

Страна: США
Продолжительность: 01:17:59
Перевод: Профессиональный многоголосый, закадровый ["Первый ТВЧ"]
Субтитры: Нет
Файл
Кодек: x264
Формат: MKV
Качество: BDRip 720p [Duress.2009.BDRemux.1080p.BLUEBIRD]
Видео: High@L4.1, ~6857 Kбит/с, 1280x550, 24 кадра/с
Аудио 1: AC3, 192 kbps, 2 ch, 48 kHz - RUS
Аудио 2: AC3, 448 kbps, 6 ch, 48 kHz - ENG--

M/I

General
Unique ID : 122929620560356986141500136854915070417 (0x5C7B623C0F3B5B62250FA4CCE29F39D1)
Complete name : G:Видео_1Принуждение_2009_BLU-RAY.720p_[-=DoMiNo=-].mkv
Format : Matroska
Format version : Version 4 / Version 2
File size : 4.17 GiB
Duration : 1 h 17 min
Overall bit rate : 7 649 kb/s
Movie name : Принуждение
Deion : Жена Ричарда покончила жизнь самоубийством. Он очень тяжело это переживает и пытается наладить отношения со своей дочерью. Однажды Ричард оказывается свидетелем нечеловеческой жестокости, проявляемой неким Эбнером Солви. Тот решает не убивать Ричарда и даже делает его своим протеже. Теперь Ричарду приходится совершать убийства, иначе Эбнер убьет его дочь.
Writing application : XviD4PSP 7.0.451 DAILY
Writing library : Lavf57.71.100
ErrorDetectionType : Per level 1
Attachments : poster.jpg / backdrop.jpg
ACTORS : Martin Donovan, Ariel Winter, Cristina Dohmen, Sakis Rouvas, Joey Adams, Catherine Dent, Deon Derrico, Gina Gallego, Jacob Bertrand, Billy Wirth, Kathleen McNearney, Alexis Raich, Chelsea Smith, Susan Spano, Megan Ashley
COUNTRY : United States
DATE : 2009-08-20
DIRECTOR : Jordan Barker
ENCODING_INFO : BluRay > MKV 720p / H264 > X264 CRF 17.0 Пользовательский
GENRE : триллер
HD_VIDEO : 1
Language : und
MEDIA_TYPE : 9
ORIGINAL_TITLE : Duress
PRODUCER : Julio Caro
PUBLISHER : Duress Film
RATING : 4.30
Video
ID : 1
Format : AVC
Format/Info : Advanced Video Codec
Format profile : High@L4.1
Format settings : CABAC / 11 Ref Frames
Format settings, CABAC : Yes
Format settings, ReFrames : 11 frames
Codec ID : V_MPEG4/ISO/AVC
Duration : 1 h 17 min
Bit rate : 6 857 kb/s
Width : 1 280 pixels
Height : 550 pixels
Display aspect ratio : 2.35:1
Frame rate mode : Constant
Frame rate : 24.000 FPS
Color space : YUV
Chroma subsampling : 4:2:0
Bit depth : 8 bits
Scan type : Progressive
Bits/(Pixel*Frame) : 0.406
Stream size : 3.74 GiB (90%)
Title : RIP_BY_-=DoMiNo=-
Writing library : x264 core 155 r2901M 7d0ff22
Encoding settings : cabac=1 / ref=11 / deblock=1:-3:-3 / analyse=0x3:0x133 / me=umh / subme=11 / psy=1 / psy_rd=1.05:0.05 / mixed_ref=1 / me_range=48 / chroma_me=1 / trellis=2 / 8x8dct=1 / cqm=0 / deadzone=21,11 / fast_pskip=0 / chroma_qp_offset=-3 / threads=6 / lookahead_threads=1 / sliced_threads=0 / nr=0 / decimate=1 / interlaced=0 / bluray_compat=0 / constrained_intra=0 / bframes=12 / b_pyramid=2 / b_adapt=2 / b_bias=0 / direct=3 / weightb=1 / open_gop=0 / weightp=2 / keyint=240 / keyint_min=24 / scenecut=40 / intra_refresh=0 / rc_lookahead=50 / rc=crf / mbtree=0 / crf=17.0 / qcomp=0.65 / qpmin=0 / qpmax=69 / qpstep=4 / vbv_maxrate=50000 / vbv_bufsize=62500 / crf_max=0.0 / nal_hrd=none / filler=0 / ip_ratio=1.40 / pb_ratio=1.30 / aq=3:0.95
Default : Yes
Forced : No
Color range : Limited
Color primaries : BT.709
Transfer characteristics : BT.709
Matrix coefficients : BT.709
Audio #1
ID : 2
Format : AC-3
Format/Info : Audio Coding 3
Codec ID : A_AC3
Duration : 1 h 17 min
Bit rate mode : Constant
Bit rate : 192 kb/s
Channel(s) : 2 channels
Channel positions : Front: L R
Sampling rate : 48.0 kHz
Frame rate : 31.250 FPS (1536 SPF)
Bit depth : 16 bits
Compression mode : Lossy
Stream size : 107 MiB (3%)
Language : Russian
Service kind : Complete Main
Default : Yes
Forced : No
Audio #2
ID : 3
Format : AC-3
Format/Info : Audio Coding 3
Codec ID : A_AC3
Duration : 1 h 17 min
Bit rate mode : Constant
Bit rate : 448 kb/s
Channel(s) : 6 channels
Channel positions : Front: L C R, Side: L R, LFE
Sampling rate : 48.0 kHz
Frame rate : 31.250 FPS (1536 SPF)
Bit depth : 16 bits
Compression mode : Lossy
Stream size : 250 MiB (6%)
Language : English
Service kind : Complete Main
Default : No
Forced : No
Menu
00:00:00.000 : :Глава 1
00:05:18.332 : :Глава 2
00:09:57.000 : :Глава 3
00:17:57.750 : :Глава 4
00:26:04.041 : :Глава 5
00:37:12.666 : :Глава 6
00:50:26.208 : :Глава 7
01:01:53.583 : :Глава 8
01:12:02.582 : :Глава 9
01:15:32.000 : :Глава 10

Скриншоты

--
[Профиль] [ЛС]
Показать сообщения:    

Текущее время: Сегодня 13:52

Часовой пояс: GMT



Вы не можете начинать темы
Вы не можете отвечать на сообщения
Вы не можете редактировать свои сообщения
Вы не можете удалять свои сообщения
Вы не можете голосовать в опросах
Вы не можете прикреплять файлы к сообщениям
Вы не можете скачивать файлы