Принимаем только наличные / Cash Only (2015) WEB-DL 720p | L

 
Автор Сообщение

достали все ®

Пол:

Стаж: 1 год 8 месяцев

Сообщений: 6611



Награды: 12 (Подробнее)

Mega Releaser 2 (Количество: 1) Top Releaser 2 (Количество: 1) Top Releaser 3 (Количество: 1)
Торрент-статистика

Создавать темы 10-Июн-2016 16:25

[Цитировать]

Информация о фильме
Название: Принимаем только наличные
Оригинальное название: Cash Only
Год выхода: 2015
Жанр: триллер, драма, криминал
Режиссер: Малик Бейдер
В ролях: Никола Шкрели, Стиви Паскоски, Даниела Штайнфелд, Малик Бейдер, Herion Mustafaraj, Кристиан Мэтис, Maia Noni, Эли Бардха, Sazan Bardha, Луиджи Гьокай
О фильме: Герой фильма, очень нужнающийся в деньгах, прячет у себя в квартире недавно найденную крупную сумму налички. Но он ещё не знает, кому эти деньги принадлежат, ведь их настоящий владелец не остановися ни пред чем, чтобы вернуть их обратно...

Выпущено: США, Албания / Bardha Productions, Nickname Projects
Продолжительность: 01:29:17
Озвучивание: Любительское (многоголосое) [Parovoz Production]
Примечание: Релиз без рекламы.

Файл
Формат: MKV
Качество: WEB-DL 720p
Видео: MPEG-4 AVC, 3900 kb/s, 1280x528
Аудио: Russian: AC3, 192 kb/s (2 ch) / English: AC3, 384 kb/s (6 ch)
Субтитры: English

MI

Format : Matroska
Format version : Version 2
File size : 2.85 GiB
Duration : 1h 29mn
Overall bit rate mode : Variable
Overall bit rate : 4 567 Kbps
Encoded date : UTC 2016-06-10 13:15:26
Writing application : mkvmerge v7.8.0 ('River Man') 32bit built on Apr 3 2015 12:11:22
Writing library : libebml v1.3.1 + libmatroska v1.4.2
Video
ID : 1
Format : AVC
Format/Info : Advanced Video Codec
Format profile : Main@L3.1
Format settings, CABAC : Yes
Format settings, ReFrames : 2 frames
Codec ID : V_MPEG4/ISO/AVC
Duration : 1h 29mn
Bit rate mode : Variable
Bit rate : 3 900 Kbps
Maximum bit rate : 768 Kbps
Width : 1 280 pixels
Height : 528 pixels
Display aspect ratio : 2.40:1
Frame rate mode : Constant
Frame rate : 23.976 fps
Color space : YUV
Chroma subsampling : 4:2:0
Bit depth : 8 bits
Scan type : Progressive
Bits/(Pixel*Frame) : 0.241
Stream size : 2.43 GiB (85%)
Language : English
Default : Yes
Forced : No
Audio #1
ID : 2
Format : AC-3
Format/Info : Audio Coding 3
Mode extension : CM (complete main)
Format settings, Endianness : Big
Codec ID : A_AC3
Duration : 1h 29mn
Bit rate mode : Constant
Bit rate : 192 Kbps
Channel(s) : 2 channels
Channel positions : Front: L R
Sampling rate : 48.0 KHz
Bit depth : 16 bits
Compression mode : Lossy
Stream size : 123 MiB (4%)
Language : Russian
Default : Yes
Forced : No
Audio #2
ID : 3
Format : AC-3
Format/Info : Audio Coding 3
Mode extension : CM (complete main)
Format settings, Endianness : Big
Codec ID : A_AC3
Duration : 1h 29mn
Bit rate mode : Constant
Bit rate : 384 Kbps
Channel(s) : 6 channels
Channel positions : Front: L C R, Side: L R, LFE
Sampling rate : 48.0 KHz
Bit depth : 16 bits
Compression mode : Lossy
Stream size : 245 MiB (8%)
Language : English
Default : No
Forced : No
Text
ID : 4
Format : UTF-8
Codec ID : S_TEXT/UTF8
Codec ID/Info : UTF-8 Plain Text
Language : English
Default : No
Forced : No

Скриншоты



[Профиль] [ЛС]
Показать сообщения:    

Текущее время: Сегодня 13:01

Часовой пояс: GMT



Вы не можете начинать темы
Вы не можете отвечать на сообщения
Вы не можете редактировать свои сообщения
Вы не можете удалять свои сообщения
Вы не можете голосовать в опросах
Вы не можете прикреплять файлы к сообщениям
Вы не можете скачивать файлы