Приключения Тинтина: Тайна Единорога / The Adventures of Tintin (2011) BDRip 1080p

 
Автор Сообщение

BOSS ®

Пол:

Стаж: 3 года

Сообщений: 7612

Откуда: ODESSA



Награды: 22 (Подробнее)

Top Seeder 3 (Количество: 1) Top Keeper 4 (Количество: 1) Top Keeper 1 (Количество: 1)
Торрент-статистика

Создавать темы 06-Окт-2017 04:02

[Цитировать]

Информация о фильме
Название: Приключения Тинтина: Тайна Единорога
Оригинальное название: The Adventures of Tintin
Год выхода: 2011
Жанр: мультфильм, боевик, детектив, приключения, семейный
Режиссер: Стивен Спилберг
В ролях: Джейми Белл, Энди Серкис, Дэниэл Крэйг, Саймон Пегг, Ник Фрост, Дэниэл Мейс, Гад Эльмалех, Тоби Джонс, Джо Старр, Енн Рейтел
О фильме: Главный герой — молодой газетный репортёр Тинтин. Благодаря своей профессии он путешествует по всему миру и становится участником увлекательных приключений.

Выпущено: Columbia Pictures
Продолжительность: 01:46:52
Перевод: Дублированный
Файл
Кодек: x264
Качество: BDRip (источник: Blu-ray Disc)
Видео: 1920x816 (2,35:1), 23.976 fps, 4959 kbps
Аудио #1: AC-3, 6 ch, 448 kbps (Rus)
Аудио #2: AC-3, 6 ch, 448 kbps (Eng)
Субтитры: Русские, Английские
Скачать: сэмпл
Скриншоты

MI

Общее
Уникальный идентификатор : 205911222138742910888061465779271918839 (0x9AE90F1176EBEA12BC0E967628F864F7)
Полное имя : The.Adventures.of.Tintin.2011.BDRip.1080p.Rus.Eng.mkv
Формат : Matroska
Версия формата : Version 2
Размер файла : 4,37 Гбайт
Продолжительность : 1 ч. 46 м.
Общий поток : 5852 Кбит/сек
Название фильма : Приключения Тинтина: Тайна Единорога / The Adventures of Tintin (2011)
Дата кодирования : UTC 2012-02-28 18:52:30
Программа кодирования : mkvmerge v4.0.0 ('The Stars were mine') сборка от Jun 6 2010 16:18:42
Библиотека кодирования : libebml v1.0.0 + libmatroska v1.0.0
Видео
Идентификатор : 1
Формат : AVC
Формат/Информация : Advanced Video Codec
Профиль формата : High@L4.1
Параметр CABAC формата : Да
Параметр ReFrames формата : 5 кадров
Идентификатор кодека : V_MPEG4/ISO/AVC
Продолжительность : 1 ч. 46 м.
Битрейт : 4959 Кбит/сек
Ширина : 1920 пикселей
Высота : 816 пикселей
Соотношение сторон : 2,35:1
Частота кадров : 23,976 кадра/сек
Цветовое пространство : YUV
Субдискретизация насыщенности : 4:2:0
Битовая глубина : 8 бит
Тип развёртки : Прогрессивная
Бит/(Пиксели*Кадры) : 0.132
Размер потока : 3,61 Гбайт (83%)
Заголовок : Release by Alexka
Библиотека кодирования : x264 core 120 r2164 da19765
Настройки программы : cabac=1 / ref=5 / deblock=1:0:0 / analyse=0x3:0x133 / me=umh / subme=10 / psy=1 / psy_rd=1.00:0.00 / mixed_ref=1 / me_range=32 / chroma_me=1 / trellis=2 / 8x8dct=1 / cqm=0 / deadzone=21,11 / fast_pskip=0 / chroma_qp_offset=-2 / threads=12 / sliced_threads=0 / nr=0 / decimate=0 / interlaced=0 / bluray_compat=0 / constrained_intra=0 / bframes=5 / b_pyramid=2 / b_adapt=2 / b_bias=0 / direct=3 / weightb=1 / open_gop=0 / weightp=2 / keyint=240 / keyint_min=24 / scenecut=40 / intra_refresh=0 / rc_lookahead=60 / rc=2pass / mbtree=1 / bitrate=4959 / ratetol=1.0 / qcomp=0.60 / qpmin=0 / qpmax=69 / qpstep=4 / cplxblur=20.0 / qblur=0.5 / ip_ratio=1.40 / aq=1:1.00
Язык : English
Аудио #1
Идентификатор : 2
Формат : AC-3
Формат/Информация : Audio Coding 3
Расширение режима : CM (complete main)
Идентификатор кодека : A_AC3
Продолжительность : 1 ч. 46 м.
Вид битрейта : Постоянный
Битрейт : 448 Кбит/сек
Каналы : 6 каналов
Расположение каналов : Front: L C R, Side: L R, LFE
Частота : 48,0 КГц
Битовая глубина : 16 бит
Метод сжатия : С потерями
Размер потока : 342 Мбайт (8%)
Заголовок : Rus
Язык : Russian
Аудио #2
Идентификатор : 3
Формат : AC-3
Формат/Информация : Audio Coding 3
Расширение режима : CM (complete main)
Идентификатор кодека : A_AC3
Продолжительность : 1 ч. 46 м.
Вид битрейта : Постоянный
Битрейт : 448 Кбит/сек
Каналы : 6 каналов
Расположение каналов : Front: L C R, Side: L R, LFE
Частота : 48,0 КГц
Битовая глубина : 16 бит
Метод сжатия : С потерями
Размер потока : 342 Мбайт (8%)
Заголовок : Eng
Язык : English
Текст #1
Идентификатор : 4
Формат : UTF-8
Идентификатор кодека : S_TEXT/UTF8
Идентификатор кодека/Информация : UTF-8 Plain Text
Заголовок : Rus
Язык : Russian
Текст #2
Идентификатор : 5
Формат : UTF-8
Идентификатор кодека : S_TEXT/UTF8
Идентификатор кодека/Информация : UTF-8 Plain Text
Заголовок : Eng
Язык : English
Меню
00:00:00.000 : :Chapter 01
00:05:39.297 : :Chapter 02
00:12:12.315 : :Chapter 03
00:17:11.364 : :Chapter 04
00:25:36.869 : :Chapter 05
00:32:37.581 : :Chapter 06
00:37:55.315 : :Chapter 07
00:42:29.839 : :Chapter 08
00:50:52.508 : :Chapter 09
00:56:27.217 : :Chapter 10
01:02:19.611 : :Chapter 11
01:11:58.981 : :Chapter 12
01:20:03.966 : :Chapter 13
01:27:30.996 : :Chapter 14
01:34:12.814 : :Chapter 15
01:40:30.483 : :Chapter 16
[Профиль] [ЛС]
Кто просматривает тему:

Форум Тема Автор Размер
Фильмы 2011 года 007: Казино Рояль / Casino Royale (Мартин Кэмпбелл / Martin Campbell) [2006, Германия, США, Великобритания, Чехия, боевик, триллер, приключения, BDRip] Dub [Полная версия / UnCut] painkiller 1.46 GB
Фильмы (HD Rips | 720p, 1080p) 007: Спектр / Spectre (Сэм Мендес) [2015 г., Боевик, триллер, приключения, BDRip 720p] DUB (Лицензия) + AVO (Чадов) + SUB BOSS 12.73 GB
Фильмы (HD DVD, Blu-ray и BDRemux) 007: СПЕКТР / Spectre (Сэм Мендес) [2015 г., боевик, триллер, приключения, Blu-Ray 1080p] Dub [Лицензия] BOSS 41.9 GB
Фильмы (HD DVD, Blu-ray и BDRemux) 007: СПЕКТР / Spectre (Сэм Мендес) [2015 г., боевик, триллер, приключения, Blu-Ray Remux 1080p] Dub [Лицензия] BOSS 32.5 GB
Фильмы 2015 года 007: СПЕКТР / Spectre (Сэм Мендес) [2015, боевик, триллер, приключения] HDRip | [DUB] [Лицензия] BOSS 1.47 GB
Фильмы 2010 года 127 Часов / 127 Hours (Дэнни Бойл / Danny Boyle) [2010, США, Великобритания, триллер, драма, приключения, биография, BDRip-AVC] Dub + 2x DVO (Кубик в кубе, OzzTV) + AVO (Сербин) + Original + Sub... TorrentFilm 3.79 GB
Фильмы 2010 года 127 Часов / 127 Hours (Дэнни Бойл / Danny Boyle) [2010, США, Триллер, биография, драма, приключения, BDRip] Dub + Original (Eng) + Subs (Rus, Eng) TorrentFilm 1.75 GB
Классика зарубежного кино 20000 лье под водой / 20000 Leagues Under the Sea (Ричард Флайшер / Richard Fleischer) [1954, США, Фантастика, фэнтези, драма, приключения, WEB-DLRip] MVO (Светла) Russian Mafia 1.46 GB
Показать сообщения:    

Текущее время: Сегодня 23:14

Часовой пояс: GMT



Вы не можете начинать темы
Вы не можете отвечать на сообщения
Вы не можете редактировать свои сообщения
Вы не можете удалять свои сообщения
Вы не можете голосовать в опросах
Вы не можете прикреплять файлы к сообщениям
Вы не можете скачивать файлы