Приключения Тела. Испытание ( 11 серий ) (Владимир Цуканов) [2012, Документальный, HDTV 1080i] [Россия HD]

 
Автор Сообщение

TorrentFilm ®

Пол:

Стаж: 2 года

Сообщений: 7741



Награды: Нет

Торрент-статистика

Создавать темы 19-Дек-2014 02:00

[Цитировать]

Приключения Тела. Испытание
Год выпуска: 2012
Страна: Россия
Жанр: Документальный
Продолжительность: 00:25:00 серия
Перевод: Не требуется
Русские субтитры: нет
Режиссер: Владимир Цуканов
Описание: Стрессы, однообразие жизни, неуверенность в себе, депрессии, неудовлетворенность собой… Все это знакомо вполне благополучным с виду жителям больших городов (и не очень больших). В мире наметилась интересная тенденция - спасение от стрессов и хворей современной цивилизации через спортивное самопреодоление и сверхнагрузки.
Что происходит с телом и психикой в экстремальных условиях? Какие реакции в организме вызывают тяжелые физические нагрузки, выживание в условиях кислородного голодания, смены давления, обезвоживание и прочее? Как меняется состав крови в высокогорных условиях, на глубине океана, во время прыжка с высоты?
Сэмпл: http://yadi.sk/d/8wWXTe6u4JpGR
Тип релиза: HDTV 1080i
Контейнер: M2TS
Видео: H264; 1920x1080 (16:9); 25.000 fps; ~8 443 Kbps
Аудио: AC-3; 48000 Hz; 192 kbps; 2 channels
Перекачайте торрент файл 2014.12.18 добавлена серия11. Приключения Тела. Испытание Культуризмом

Список выпусков

01. Приключения Тела. Испытание Глубиной
02. Приключения Тела. Испытание Высотой
03. Приключения Тела. Испытание Изоляцией
04. Приключения Тела. Испытание Болью
05. Приключения Тела. Испытание Сверхнагрузкой
06. Приключения Тела. Испытание Скоростью
07. Приключения Тела. Испытание Огнём
08. Приключения Тела. Испытание Бессоницей
09. Приключения тела. Испытание морская болезнь
10. Приключения тела. Испытание Погружением
11. Приключения Тела. Испытание Культуризмом

MediaInfo

E:\1_DOKUMENT\Приключения Тела. Испытание\01. Приключения Тела. Испытание Глубиной.m2ts
General #0
ID : 0 (0x0)
Complete name : E:\1_DOKUMENT\Приключения Тела. Испытание\01. Приключения Тела. Испытание Глубиной.m2ts
Format : BDAV
Format/Info : Blu-ray Video
File size : 1.55 GiB
Duration : 24mn 43s
Overall bit rate : 9 000 Kbps
Maximum Overall bit rate : 24.0 Mbps
Video #4113
ID : 4113 (0x1011)
Menu ID : 1 (0x1)
Format : AVC
Format/Info : Advanced Video Codec
Format profile : High@L4.0
Format settings, CABAC : Yes
Format settings, ReFrames : 3 frames
Codec ID : 27
Duration : 24mn 43s
Bit rate : 8 443 Kbps
Width : 1 920 pixels
Height : 1 080 pixels
Display aspect ratio : 16:9
Frame rate : 25.000 fps
Standard : Component
Color space : YUV
Chroma subsampling : 4:2:0
Bit depth : 8 bits
Scan type : Interlaced
Scan order : Top Field First
Bits/(Pixel*Frame) : 0.163
Stream size : 1.46 GiB (94%)
Color primaries : BT.709-5, BT.1361, IEC 61966-2-4, SMPTE RP177
Transfer characteristics : BT.709-5, BT.1361
Matrix coefficients : BT.709-5, BT.1361, IEC 61966-2-4 709, SMPTE RP177
Audio #4352
ID : 4352 (0x1100)
Menu ID : 1 (0x1)
Format : AC-3
Format/Info : Audio Coding 3
Mode extension : CM (complete main)
Codec ID : 129
Duration : 24mn 43s
Bit rate mode : Constant
Bit rate : 192 Kbps
Channel(s) : 2 channels
Channel positions : Front: L R
Sampling rate : 48.0 KHz
Bit depth : 16 bits
Compression mode : Lossy
Stream size : 34.0 MiB (2%)

Скриншоты

[Профиль] [ЛС]
Кто просматривает тему:

Форум Тема Автор Размер
Фильмы 2011 года 007: Казино Рояль / Casino Royale (Мартин Кэмпбелл / Martin Campbell) [2006, Германия, США, Великобритания, Чехия, боевик, триллер, приключения, BDRip] Dub [Полная версия / UnCut] painkiller 1.46 GB
Фильмы (HD Rips | 720p, 1080p) 007: Спектр / Spectre (Сэм Мендес) [2015 г., Боевик, триллер, приключения, BDRip 720p] DUB (Лицензия) + AVO (Чадов) + SUB BOSS 12.73 GB
Фильмы (HD DVD, Blu-ray и BDRemux) 007: СПЕКТР / Spectre (Сэм Мендес) [2015 г., боевик, триллер, приключения, Blu-Ray 1080p] Dub [Лицензия] BOSS 41.9 GB
Фильмы (HD DVD, Blu-ray и BDRemux) 007: СПЕКТР / Spectre (Сэм Мендес) [2015 г., боевик, триллер, приключения, Blu-Ray Remux 1080p] Dub [Лицензия] BOSS 32.5 GB
Фильмы 2015 года 007: СПЕКТР / Spectre (Сэм Мендес) [2015, боевик, триллер, приключения] HDRip | [DUB] [Лицензия] BOSS 1.47 GB
Фильмы 2010 года 127 Часов / 127 Hours (Дэнни Бойл / Danny Boyle) [2010, США, Великобритания, триллер, драма, приключения, биография, BDRip-AVC] Dub + 2x DVO (Кубик в кубе, OzzTV) + AVO (Сербин) + Original + Sub... TorrentFilm 3.79 GB
Фильмы 2010 года 127 Часов / 127 Hours (Дэнни Бойл / Danny Boyle) [2010, США, Триллер, биография, драма, приключения, BDRip] Dub + Original (Eng) + Subs (Rus, Eng) TorrentFilm 1.75 GB
Классика зарубежного кино 20000 лье под водой / 20000 Leagues Under the Sea (Ричард Флайшер / Richard Fleischer) [1954, США, Фантастика, фэнтези, драма, приключения, WEB-DLRip] MVO (Светла) Russian Mafia 1.46 GB
Показать сообщения:    

Текущее время: Сегодня 20:10

Часовой пояс: GMT



Вы не можете начинать темы
Вы не можете отвечать на сообщения
Вы не можете редактировать свои сообщения
Вы не можете удалять свои сообщения
Вы не можете голосовать в опросах
Вы не можете прикреплять файлы к сообщениям
Вы не можете скачивать файлы