Приключения «Посейдона» / The Poseidon Adventure (1972) BDRemux [1080p]

 
Автор Сообщение

admin ®





Торрент-статистика

Создавать темы 07-Авг-2014 22:56

[Цитировать]

-Приключения «Посейдона» / The Poseidon Adventure (1972) BDRemux-«Combining the talents of fifteen Academy Award Winners»-
Год выпуска: 1972
Жанр: Боевик, Приключения
Производство: США / 20th Century Fox Film Corporation, Kent Productions
Перевод: Многоголосый закадровый, одноголосый закадровый х2 (Ю.Живов, А.Гаврилов)
Субтитры: Вшитые отключаемые
Язык субтитров: Русский, Английский
Описание фильма:
Крупномасштабная экранизация романа Пола Галлико начинается в новогоднюю ночь на роскошном океанском лайнере «Посейдон», идущем из Америки в Грецию. Празднование прерывается внезапным ударом гигантской волны, вызванной близким подводным землетрясением. Вода обрушивается на корабль и переворачивает его вверх дном.
Небольшой горстке людей во главе со священником чудом удается пробраться в отсеки, еще не заполненные водой. Пассажирам придется пережить несколько жутких часов в напряженной борьбе за выживание, прежде чем они снова увидят свет солнца.
Режиссер: Роналд Ним, Ирвин Аллен
Актеры: Джин Хэкмен, Эрнест Боргнайн, Ред Баттонс, Кэрол Линли, Родди МакДауэлл, Стелла Стивенс, Шелли Уинтерс, Джек Альбертсон, Памела Сью Мартин, Артур О’Коннелл, Лесли Нильсен
Дата мировой премьеры: 12 декабря 1972
Дата выхода DVD релиза: 14 мая 2009, «Двадцатый Век Фокс СНГ»

Продолжительность: 01:57:01
Качество видео: BDRemux [1080p]
Видеокодек: MPEG-4 AVC/H.264
Битрейт видео: ~31,2 Мбит/сек
Размер кадра: 1920x1080
Аудио 1: Русский - AC3, 2/0 (L,R) ch, 48 kHz, ~192 Кбит/сек - MVO
Аудио 2: Русский - DTS, 4/0 (L,C,R,Cs), 48 kHz, ~768 Кбит/сек - AVO Ю.Живов
Аудио 3: Русский - DTS, 4/0 (L,C,R,Cs), 48 kHz, ~768 Кбит/сек - AVO А.Гаврилов
Аудио 4: Английский - DTS, 4/0 (L,C,R,Cs), 48 kHz, ~768 Кбит/сек - Orig ENG
Аудио 5: Английский - AC3, 2/0 (L,R) ch, 48 kHz, ~224 Кбит/сек - Комментарий режиссера Р. Нима
Аудио 6: Английский - AC3, 2/0 (L,R) ch, 48 kHz, ~224 Кбит/сек - Комментарий П. Мартин, С. Стивенс и К. Линли

MediaInfo:

Общее
Полное имя : \The Poseidon Adventure (1972) BDRemux.mkv
Формат : Matroska
Версия формата : Version 4 / Version 2
Размер файла : 29,0 Гбайт
Продолжительность : 1 ч. 57 м.
Режим общего битрейта : Переменный
Общий поток : 35,5 Мбит/сек
Название фильма : The Poseidon Adventure
Дата кодирования : UTC 2014-07-31 06:42:49
Программа кодирования : mkvmerge v7.1.0 ('Good Love') 64bit built on Jul 27 2014 13:06:55
Библиотека кодирования : libebml v1.3.0 + libmatroska v1.4.1
Обложка : Yes
DURATION : 01:57:01.056000000
NUMBER_OF_FRAMES : 219408
NUMBER_OF_BYTES : 196589568
_STATISTICS_WRITING_APP : mkvmerge v7.1.0 ('Good Love') 64bit built on Jul 27 2014 13:06:55
_STATISTICS_WRITING_DATE_UTC : 2014-07-31 06:42:49
_STATISTICS_TAGS : BPS DURATION NUMBER_OF_FRAMES NUMBER_OF_BYTES
Видео
Идентификатор : 1
Формат : AVC
Формат/Информация : Advanced Video Codec
Профиль формата : [url=mailto:High@L4.1]High@L4.1[/url]
Параметр CABAC формата : Да
Параметр ReFrames формата : 4 кадра
Идентификатор кодека : V_MPEG4/ISO/AVC
Продолжительность : 1 ч. 57 м.
Вид битрейта : Переменный
Битрейт : 31,2 Мбит/сек
Максимальный битрейт : 34,5 Мбит/сек
Ширина : 1920 пикселей
Высота : 1080 пикселей
Соотношение сторон : 16:9
Режим частоты кадров : Постоянный
Частота кадров : 23,976 кадра/сек
Цветовое пространство : YUV
Субдискретизация насыщенности : 4:2:0
Битовая глубина : 8 бит
Тип развёртки : Прогрессивная
Бит/(Пиксели*Кадры) : 0.627
Размер потока : 25,5 Гбайт (88%)
Заголовок : Приключения «Посейдона» BDRemux
Язык : English
Default : Нет
Forced : Нет
DURATION : 01:57:01.056000000
NUMBER_OF_FRAMES : 168337
NUMBER_OF_BYTES : 27954031009
_STATISTICS_WRITING_APP : mkvmerge v7.1.0 ('Good Love') 64bit built on Jul 27 2014 13:06:55
_STATISTICS_WRITING_DATE_UTC : 2014-07-31 06:42:49
_STATISTICS_TAGS : BPS DURATION NUMBER_OF_FRAMES NUMBER_OF_BYTES
Аудио #1
Идентификатор : 2
Формат : AC-3
Формат/Информация : Audio Coding 3
Расширение режима : CM (complete main)
Параметр Endianness формата : Big
Идентификатор кодека : A_AC3
Продолжительность : 1 ч. 57 м.
Вид битрейта : Постоянный
Битрейт : 192 Кбит/сек
Каналы : 2 канала
Расположение каналов : Front: L R
Частота : 48,0 КГц
Битовая глубина : 16 бит
Метод сжатия : С потерями
Размер потока : 161 Мбайт (1%)
Заголовок : MVO
Язык : Russian
Default : Да
Forced : Нет
DURATION : 01:57:01.057000000
NUMBER_OF_FRAMES : 658224
NUMBER_OF_BYTES : 1324346688
_STATISTICS_WRITING_APP : mkvmerge v7.1.0 ('Good Love') 64bit built on Jul 27 2014 13:06:55
_STATISTICS_WRITING_DATE_UTC : 2014-07-31 06:42:49
_STATISTICS_TAGS : BPS DURATION NUMBER_OF_FRAMES NUMBER_OF_BYTES
Аудио #2
Идентификатор : 3
Формат : DTS
Формат/Информация : Digital Theater Systems
Режим : 16
Параметр Endianness формата : Big
Идентификатор кодека : A_DTS
Продолжительность : 1 ч. 57 м.
Вид битрейта : Постоянный
Битрейт : 755 Кбит/сек
Каналы : 4 канала
Расположение каналов : Front: L C R, Back: C
Частота : 48,0 КГц
Битовая глубина : 24 бит
Метод сжатия : С потерями
Размер потока : 631 Мбайт (2%)
Заголовок : AVO Ю.Живов
Язык : Russian
Default : Нет
Forced : Нет
DURATION : 01:54:33.867000000
NUMBER_OF_FRAMES : 2630
NUMBER_OF_BYTES : 8454732
_STATISTICS_WRITING_APP : mkvmerge v7.1.0 ('Good Love') 64bit built on Jul 27 2014 13:06:55
_STATISTICS_WRITING_DATE_UTC : 2014-07-31 06:42:49
_STATISTICS_TAGS : BPS DURATION NUMBER_OF_FRAMES NUMBER_OF_BYTES
Аудио #3
Идентификатор : 4
Формат : DTS
Формат/Информация : Digital Theater Systems
Режим : 16
Параметр Endianness формата : Big
Идентификатор кодека : A_DTS
Продолжительность : 1 ч. 57 м.
Вид битрейта : Постоянный
Битрейт : 755 Кбит/сек
Каналы : 4 канала
Расположение каналов : Front: L C R, Back: C
Частота : 48,0 КГц
Битовая глубина : 24 бит
Метод сжатия : С потерями
Размер потока : 631 Мбайт (2%)
Заголовок : AVO А.Гаврилов
Язык : Russian
Default : Нет
Forced : Нет
DURATION : 01:54:34.034000000
NUMBER_OF_FRAMES : 2454
NUMBER_OF_BYTES : 7523123
_STATISTICS_WRITING_APP : mkvmerge v7.1.0 ('Good Love') 64bit built on Jul 27 2014 13:06:55
_STATISTICS_WRITING_DATE_UTC : 2014-07-31 06:42:49
_STATISTICS_TAGS : BPS DURATION NUMBER_OF_FRAMES NUMBER_OF_BYTES
Аудио #4
Идентификатор : 5
Формат : DTS
Формат/Информация : Digital Theater Systems
Режим : 16
Параметр Endianness формата : Big
Идентификатор кодека : A_DTS
Продолжительность : 1 ч. 57 м.
Вид битрейта : Постоянный
Битрейт : 1509 Кбит/сек
Каналы : 4 канала
Расположение каналов : Front: L C R, Back: C
Частота : 48,0 КГц
Битовая глубина : 24 бит
Метод сжатия : С потерями
Размер потока : 1,23 Гбайт (4%)
Заголовок : EN
Язык : English
Default : Нет
Forced : Нет
Аудио #5
Идентификатор : 6
Формат : AC-3
Формат/Информация : Audio Coding 3
Расширение режима : CM (complete main)
Параметр Endianness формата : Big
Идентификатор кодека : A_AC3
Продолжительность : 1 ч. 57 м.
Вид битрейта : Постоянный
Битрейт : 224 Кбит/сек
Каналы : 2 канала
Расположение каналов : Front: L R
Частота : 48,0 КГц
Битовая глубина : 16 бит
Метод сжатия : С потерями
Размер потока : 187 Мбайт (1%)
Заголовок : Комментарий режиссера Р. Нима
Язык : English
Default : Нет
Forced : Нет
Аудио #6
Идентификатор : 7
Формат : AC-3
Формат/Информация : Audio Coding 3
Расширение режима : CM (complete main)
Параметр Endianness формата : Big
Идентификатор кодека : A_AC3
Продолжительность : 1 ч. 57 м.
Вид битрейта : Постоянный
Битрейт : 224 Кбит/сек
Каналы : 2 канала
Расположение каналов : Front: L R
Частота : 48,0 КГц
Битовая глубина : 16 бит
Метод сжатия : С потерями
Размер потока : 187 Мбайт (1%)
Заголовок : Комментарий П. Мартин, С. Стивенс и К. Линли
Язык : English
Default : Нет
Forced : Нет
Текст #1
Идентификатор : 8
Формат : PGS
Режим смешивания : zlib
Идентификатор кодека : S_HDMV/PGS
Идентификатор кодека/Информация : The same subtitle format used on BDs/HD-DVDs
Заголовок : RU
Язык : Russian
Default : Нет
Forced : Нет
Текст #2
Идентификатор : 9
Формат : PGS
Режим смешивания : zlib
Идентификатор кодека : S_HDMV/PGS
Идентификатор кодека/Информация : The same subtitle format used on BDs/HD-DVDs
Заголовок : EN
Язык : English
Default : Нет
Forced : Нет
Меню
00:00:00.000 : en:Chapter 01
00:02:04.082 : en:Chapter 02
00:06:38.398 : en:Chapter 03
00:09:41.247 : en:Chapter 04
00:13:30.935 : en:Chapter 05
00:14:55.978 : en:Chapter 06
00:22:56.958 : en:Chapter 07
00:26:18.952 : en:Chapter 08
00:29:47.076 : en:Chapter 09
00:37:19.028 : en:Chapter 10
00:41:47.588 : en:Chapter 11
00:46:34.958 : en:Chapter 12
00:51:47.270 : en:Chapter 13
00:55:17.230 : en:Chapter 14
01:02:19.819 : en:Chapter 15
01:10:24.094 : en:Chapter 16
01:13:53.178 : en:Chapter 17
01:18:28.954 : en:Chapter 18
01:23:51.401 : en:Chapter 19
01:33:51.917 : en:Chapter 20
01:40:40.534 : en:Chapter 21
01:46:14.659 : en:Chapter 22
01:49:19.386 : en:Chapter 23
01:54:31.197 : en:Chapter 24
Скриншоты:

-Время раздачи: 24/7 до 5-ти сидов + по возможности
-
 
Кто просматривает тему:

Форум Тема Автор Размер
Фильмы 2011 года 007: Казино Рояль / Casino Royale (Мартин Кэмпбелл / Martin Campbell) [2006, Германия, США, Великобритания, Чехия, боевик, триллер, приключения, BDRip] Dub [Полная версия / UnCut] painkiller 1.46 GB
Фильмы (HD Rips | 720p, 1080p) 007: Спектр / Spectre (Сэм Мендес) [2015 г., Боевик, триллер, приключения, BDRip 720p] DUB (Лицензия) + AVO (Чадов) + SUB BOSS 12.73 GB
Фильмы (HD DVD, Blu-ray и BDRemux) 007: СПЕКТР / Spectre (Сэм Мендес) [2015 г., боевик, триллер, приключения, Blu-Ray 1080p] Dub [Лицензия] BOSS 41.9 GB
Фильмы (HD DVD, Blu-ray и BDRemux) 007: СПЕКТР / Spectre (Сэм Мендес) [2015 г., боевик, триллер, приключения, Blu-Ray Remux 1080p] Dub [Лицензия] BOSS 32.5 GB
Фильмы 2015 года 007: СПЕКТР / Spectre (Сэм Мендес) [2015, боевик, триллер, приключения] HDRip | [DUB] [Лицензия] BOSS 1.47 GB
Фильмы 2010 года 127 Часов / 127 Hours (Дэнни Бойл / Danny Boyle) [2010, США, Великобритания, триллер, драма, приключения, биография, BDRip-AVC] Dub + 2x DVO (Кубик в кубе, OzzTV) + AVO (Сербин) + Original + Sub... TorrentFilm 3.79 GB
Фильмы 2010 года 127 Часов / 127 Hours (Дэнни Бойл / Danny Boyle) [2010, США, Триллер, биография, драма, приключения, BDRip] Dub + Original (Eng) + Subs (Rus, Eng) TorrentFilm 1.75 GB
Классика зарубежного кино 20000 лье под водой / 20000 Leagues Under the Sea (Ричард Флайшер / Richard Fleischer) [1954, США, Фантастика, фэнтези, драма, приключения, WEB-DLRip] MVO (Светла) Russian Mafia 1.46 GB
Показать сообщения:    

Текущее время: Сегодня 16:53

Часовой пояс: GMT



Вы не можете начинать темы
Вы не можете отвечать на сообщения
Вы не можете редактировать свои сообщения
Вы не можете удалять свои сообщения
Вы не можете голосовать в опросах
Вы не можете прикреплять файлы к сообщениям
Вы не можете скачивать файлы