Приключения поросёнка Фунтика (Неуловимый Фунтик; Фунтик и сыщики; Фунтик и старушка с усами; Фунтик в цирке) (Анатолий Солин) [1986-1988 г.г., Мультфильм, SATRip]

 
Автор Сообщение

TorrentFilm ®

Пол:

Стаж: 2 года

Сообщений: 7741



Награды: Нет

Торрент-статистика

Создавать темы 01-Янв-2016 00:16

[Цитировать]

Приключения поросёнка Фунтика
1. Неуловимый Фунтик (1986 г.)
2. Фунтик и сыщики (1986 г.)
3. Фунтик и старушка с усами (1987 г.)
4. Фунтик в цирке (1988 г.)

Страна: СССР
Жанр: Мультфильм
Продолжительность: 00:10:10 + 00:10:01 + 00:09:54 + 00:09:16
Год выпуска: 1986, 1986, 1987, 1988
Выпущено: «ЭКРАН»
Режиссёр: Анатолий Солин
Русские субтитры: нетОписание:Поросёнок Фунтик сбегает от своей хозяйки, госпожи Беладонны, злой и жадной владелицы универмага «Слеза ребёнка», потому что не хочет обманывать детей и ложью выманивать у них деньги для Беладонны. Хозяйка начинает безжалостно преследовать поросёнка, который приносил ей очень неплохой доход. Ей помогают тупой начальник полиции Фокстрот и суетливые сыщики Добер и Пинчер. Но Фунтик случайно встречает в лесу дядюшку Мокуса и Бамбино ─ циркачей и отправляется с ними в путешествие навстречу новой жизни...

Цитаты


— Дети, подайте на домики для бездо-о-омных поросят!
— Лучший кофе на дороге: отхлебнёшь — протянешь ноги!
— Нюхни... У тебя денежки есть?
— Нет…
— Вынюхни, вынюхни!!!
— Хозяйка, пули свистели над головой…
— А сапоги над головой не свистели?!!
— Ах, как это сложно — иметь миллион!
— Начинацию операю! То есть, операцию начинаю…
— Болото — дом для бегемота. Но нам сидеть тут неохота.
— Дядюшка Мокус, можно, я кину в них грязью?
— Не надо, Бамбино. У них могут быть маленькие дети, которые наверняка любят цирк.
— Где надо ловить рыбу?
— В речке.
— А циркачей?
— В озере!!!
— Они нас не узнали! Мы — охотник с собакой!..
— Так я обманул одиннадцать девочек, трёх мальчиков и одного очень доброго старичка.
— Дети плачут, а родители платят.
— У меня много разных талантов.
— Щекотки боится, но кушает хорошо!
— Гостиница называется «Три дороги» — значит, за всё платить втридорога.
— Самородок… ну просто хватай и беги!
— В наше время даже сейфам нельзя доверять! Мне было бы так одиноко без моего миллиона…
— Мадам, подайте нам руку!
— Или хотя бы ручку этой сумочки…
— Разбежалась! А миллион вам не надо?
— Добер-старший, лучший сыщик с дипломом!
— Пинчер-младший, лучший сыщик без диплома!
— Подари свой диплом лягушкам, щенок!
— Арестовать! Догнать! То есть сначала догнать, а потом арестовать!
— Мне для работы своей головы не жаль!
— С ними всегда так: сначала ты на них едешь, потом ─ они на тебе.
— Алло, шеф! Бабушку взяли в плен, а мы попали в утиль.
— Дама приятной наружности.
— Ага, вот такой окружности!

Режиссёр и команда

Режиссёр Анатолий Солин
сценаристы: Ю. Сидоров, Валерий Шульжик, Юрий Фридман
художник-постановщик Инна Пшеничная
xудожники: Игорь Медник, Александр Брежнев, Елена Караваева, Е. Вевурко, В. Чернихова, Нина Иванчева, И. Еремеев, Александр Сичкарь, Александр Брежнев, Елена Сударикова, Г. Черникова, Е. Никитина
аниматоры: Светлана Сичкарь, Владимир Спорыхин, Ирина Гундырева, И. Самохин, Борис Тузанович, Андрей Колков, Михаил Зайцев, С. Петецкий, А. Елизаров
оператор: Эрнст Гаман
композитор: Владимир Львовский
звукорежиссёр Сергей Кель
редактор Л. Стефанова
монтажёры: Людмила Рубан, Галина Дробинина, С. Симухина
роли озвучивали: Зоя Пыльнова (Фунтик), Армен Джигарханян (Дядюшка Мокус), Ирина Муравьева (Бамбино), Ольга Аросева (госпожа Белладонна), Спартак Мишулин (сыщик Пинчер), Юрий Волынцев (сыщик Добер), Анатолий Баранцев (Фокстрот), Георгий Бурков (Бегемот Шоколад), Борис Рунге (Дурилло), Раиса Мухаметшина (песня госпожи Белладонны).
Качество: SATRip
Формат: AVI
Видео: 720x544 (1.32:1), 25 fps, XviD build 64 ~2374-2395 kbps avg, 0.24 bit/pixel
Аудио: 48 kHz, AC3 Dolby Digital, 2/0 (L,R) ch, ~192 kbps
Субтитры: отсутствуют

Подробные технические данные

1.

Общее
Полное имя : F:\Prikl'ucheniya_Funtika 1-4 (SATRip)\1._Neulovimiy_Funtik.avi
Формат : AVI
Формат/Информация : Audio Video Interleave
Размер файла : 188 Мбайт
Продолжительность : 10 м.
Общий поток : 2583 Кбит/сек
Программа кодирования : VirtualDubMod 1.5.10.2 (build 2540/release)
Библиотека кодирования : VirtualDubMod build 2540/release
Видео
Идентификатор : 0
Формат : MPEG-4 Visual
Профиль формата : Advanced Simple@L5
Параметр BVOP формата : 2
Параметр QPel формата : Нет
Параметр GMC формата : Без точки перехода
Параметр матрицы формата : Выборочная
Идентификатор кодека : XVID
Идентификатор кодека/Подсказка : XviD
Продолжительность : 10 м.
Битрейт : 2381 Кбит/сек
Ширина : 720 пикселей
Высота : 544 пикселя
Соотношение сторон : 4:3
Частота кадров : 25,000 кадров/сек
Цветовое пространство : YUV
Субдискретизация насыщенности : 4:2:0
Битовая глубина : 8 бит
Тип развёртки : Прогрессивная
Метод сжатия : С потерями
Бит/(Пиксели*Кадры) : 0.243
Размер потока : 173 Мбайт (92%)
Библиотека кодирования : XviD 64
Аудио
Идентификатор : 1
Формат : AC-3
Формат/Информация : Audio Coding 3
Расширение режима : CM (complete main)
Идентификатор кодека : 2000
Продолжительность : 10 м.
Вид битрейта : Постоянный
Битрейт : 192 Кбит/сек
Каналы : 2 канала
Расположение каналов : Front: L R
Частота : 48,0 КГц
Битовая глубина : 16 бит
Метод сжатия : С потерями
Размер потока : 14,0 Мбайт (7%)
Выравнивание : Разделение по промежуткам
Продолжительность промежутка : 40 мс. (1,00 видеокадр)
Время предзагрузки промежутка : 500 мс.

2.

Общее
Полное имя : F:\Prikl'ucheniya_Funtika 1-4 (SATRip)\2._Funtik_i_syshchiki.avi
Формат : AVI
Формат/Информация : Audio Video Interleave
Размер файла : 185 Мбайт
Продолжительность : 10 м.
Общий поток : 2577 Кбит/сек
Программа кодирования : VirtualDubMod 1.5.10.2 (build 2540/release)
Библиотека кодирования : VirtualDubMod build 2540/release
Видео
Идентификатор : 0
Формат : MPEG-4 Visual
Профиль формата : Advanced Simple@L5
Параметр BVOP формата : 2
Параметр QPel формата : Нет
Параметр GMC формата : Без точки перехода
Параметр матрицы формата : Выборочная
Идентификатор кодека : XVID
Идентификатор кодека/Подсказка : XviD
Продолжительность : 10 м.
Битрейт : 2375 Кбит/сек
Ширина : 720 пикселей
Высота : 544 пикселя
Соотношение сторон : 4:3
Частота кадров : 25,000 кадров/сек
Цветовое пространство : YUV
Субдискретизация насыщенности : 4:2:0
Битовая глубина : 8 бит
Тип развёртки : Прогрессивная
Метод сжатия : С потерями
Бит/(Пиксели*Кадры) : 0.243
Размер потока : 170 Мбайт (92%)
Библиотека кодирования : XviD 64
Аудио
Идентификатор : 1
Формат : AC-3
Формат/Информация : Audio Coding 3
Расширение режима : CM (complete main)
Идентификатор кодека : 2000
Продолжительность : 10 м.
Вид битрейта : Постоянный
Битрейт : 192 Кбит/сек
Каналы : 2 канала
Расположение каналов : Front: L R
Частота : 48,0 КГц
Битовая глубина : 16 бит
Метод сжатия : С потерями
Размер потока : 13,8 Мбайт (7%)
Выравнивание : Разделение по промежуткам
Продолжительность промежутка : 40 мс. (1,00 видеокадр)
Время предзагрузки промежутка : 500 мс.

3.

Общее
Полное имя : F:\Prikl'ucheniya_Funtika 1-4 (SATRip)\3._Funtik_i_starushka_s_usami.avi
Формат : AVI
Формат/Информация : Audio Video Interleave
Размер файла : 184 Мбайт
Продолжительность : 9 м. 54 с.
Общий поток : 2599 Кбит/сек
Программа кодирования : VirtualDubMod 1.5.10.2 (build 2540/release)
Библиотека кодирования : VirtualDubMod build 2540/release
Видео
Идентификатор : 0
Формат : MPEG-4 Visual
Профиль формата : Advanced Simple@L5
Параметр BVOP формата : 2
Параметр QPel формата : Нет
Параметр GMC формата : Без точки перехода
Параметр матрицы формата : Выборочная
Идентификатор кодека : XVID
Идентификатор кодека/Подсказка : XviD
Продолжительность : 9 м. 54 с.
Битрейт : 2397 Кбит/сек
Ширина : 720 пикселей
Высота : 544 пикселя
Соотношение сторон : 4:3
Частота кадров : 25,000 кадров/сек
Цветовое пространство : YUV
Субдискретизация насыщенности : 4:2:0
Битовая глубина : 8 бит
Тип развёртки : Прогрессивная
Метод сжатия : С потерями
Бит/(Пиксели*Кадры) : 0.245
Размер потока : 170 Мбайт (92%)
Библиотека кодирования : XviD 64
Аудио
Идентификатор : 1
Формат : AC-3
Формат/Информация : Audio Coding 3
Расширение режима : CM (complete main)
Идентификатор кодека : 2000
Продолжительность : 9 м. 54 с.
Вид битрейта : Постоянный
Битрейт : 192 Кбит/сек
Каналы : 2 канала
Расположение каналов : Front: L R
Частота : 48,0 КГц
Битовая глубина : 16 бит
Метод сжатия : С потерями
Размер потока : 13,6 Мбайт (7%)
Выравнивание : Разделение по промежуткам
Продолжительность промежутка : 40 мс. (1,00 видеокадр)
Время предзагрузки промежутка : 500 мс.

4.

Общее
Полное имя : F:\Prikl'ucheniya_Funtika 1-4 (SATRip)\4._Funtik_v_tzirke.avi
Формат : AVI
Формат/Информация : Audio Video Interleave
Размер файла : 172 Мбайт
Продолжительность : 9 м. 16 с.
Общий поток : 2597 Кбит/сек
Программа кодирования : VirtualDubMod 1.5.10.2 (build 2540/release)
Библиотека кодирования : VirtualDubMod build 2540/release
Видео
Идентификатор : 0
Формат : MPEG-4 Visual
Профиль формата : Advanced Simple@L5
Параметр BVOP формата : 2
Параметр QPel формата : Нет
Параметр GMC формата : Без точки перехода
Параметр матрицы формата : Выборочная
Идентификатор кодека : XVID
Идентификатор кодека/Подсказка : XviD
Продолжительность : 9 м. 16 с.
Битрейт : 2395 Кбит/сек
Ширина : 720 пикселей
Высота : 544 пикселя
Соотношение сторон : 4:3
Частота кадров : 25,000 кадров/сек
Цветовое пространство : YUV
Субдискретизация насыщенности : 4:2:0
Битовая глубина : 8 бит
Тип развёртки : Прогрессивная
Метод сжатия : С потерями
Бит/(Пиксели*Кадры) : 0.245
Размер потока : 159 Мбайт (92%)
Библиотека кодирования : XviD 64
Аудио
Идентификатор : 1
Формат : AC-3
Формат/Информация : Audio Coding 3
Расширение режима : CM (complete main)
Идентификатор кодека : 2000
Продолжительность : 9 м. 16 с.
Вид битрейта : Постоянный
Битрейт : 192 Кбит/сек
Каналы : 2 канала
Расположение каналов : Front: L R
Частота : 48,0 КГц
Битовая глубина : 16 бит
Метод сжатия : С потерями
Размер потока : 12,7 Мбайт (7%)
Выравнивание : Разделение по промежуткам
Продолжительность промежутка : 40 мс. (1,00 видеокадр)
Время предзагрузки промежутка : 500 мс.

Скриншоты1. Неуловимый Фунтик

2. Фунтик и сыщики

3. Фунтик и старушка с усами

4. Фунтик в цирке

-Сравнения с другой раздачей:
"Приключения поросёнка Фунтика" (Nyc-2008, 704x528, ~2381-2392 kbps)
1-2 серии http://screenshotcomparison.com/comparison/37405
3 серия http://screenshotcomparison.com/comparison/37407
4 серия http://screenshotcomparison.com/comparison/37408
-
За источник благодарности получает SLuMeP - Все раздачи
[Профиль] [ЛС]
Кто просматривает тему:

Форум Тема Автор Размер
Фильмы 2011 года 007: Казино Рояль / Casino Royale (Мартин Кэмпбелл / Martin Campbell) [2006, Германия, США, Великобритания, Чехия, боевик, триллер, приключения, BDRip] Dub [Полная версия / UnCut] painkiller 1.46 GB
Фильмы (HD Rips | 720p, 1080p) 007: Спектр / Spectre (Сэм Мендес) [2015 г., Боевик, триллер, приключения, BDRip 720p] DUB (Лицензия) + AVO (Чадов) + SUB BOSS 12.73 GB
Фильмы (HD DVD, Blu-ray и BDRemux) 007: СПЕКТР / Spectre (Сэм Мендес) [2015 г., боевик, триллер, приключения, Blu-Ray 1080p] Dub [Лицензия] BOSS 41.9 GB
Фильмы (HD DVD, Blu-ray и BDRemux) 007: СПЕКТР / Spectre (Сэм Мендес) [2015 г., боевик, триллер, приключения, Blu-Ray Remux 1080p] Dub [Лицензия] BOSS 32.5 GB
Фильмы 2015 года 007: СПЕКТР / Spectre (Сэм Мендес) [2015, боевик, триллер, приключения] HDRip | [DUB] [Лицензия] BOSS 1.47 GB
Фильмы 2010 года 127 Часов / 127 Hours (Дэнни Бойл / Danny Boyle) [2010, США, Великобритания, триллер, драма, приключения, биография, BDRip-AVC] Dub + 2x DVO (Кубик в кубе, OzzTV) + AVO (Сербин) + Original + Sub... TorrentFilm 3.79 GB
Фильмы 2010 года 127 Часов / 127 Hours (Дэнни Бойл / Danny Boyle) [2010, США, Триллер, биография, драма, приключения, BDRip] Dub + Original (Eng) + Subs (Rus, Eng) TorrentFilm 1.75 GB
Классика зарубежного кино 20000 лье под водой / 20000 Leagues Under the Sea (Ричард Флайшер / Richard Fleischer) [1954, США, Фантастика, фэнтези, драма, приключения, WEB-DLRip] MVO (Светла) Russian Mafia 1.46 GB
Показать сообщения:    

Текущее время: Сегодня 05:20

Часовой пояс: GMT



Вы не можете начинать темы
Вы не можете отвечать на сообщения
Вы не можете редактировать свои сообщения
Вы не можете удалять свои сообщения
Вы не можете голосовать в опросах
Вы не можете прикреплять файлы к сообщениям
Вы не можете скачивать файлы