Приключения поросенка Фунтика (Неуловимый Фунтик, Фунтик и сыщики, Фунтик и старушка с усами, Фунтик в цирке) (Анатолий Солин) [1986-1988 г., мультфильм, DVB]

 
Автор Сообщение

TorrentFilm ®

Пол:

Стаж: 2 года

Сообщений: 7741



Награды: Нет

Торрент-статистика

Создавать темы 03-Янв-2016 00:04

[Цитировать]

Приключения поросенка Фунтика
Жанр: мультфильм
Год выпуска: 1986-1988
Продолжительность: 00:10:10 + 00:10:01 + 00:09:54 + 00:09:16
Режиссёр: Анатолий Солин
Описание: мультфильм о том, как поросенок Фунтик сбегает от своей хозяйки, госпожи Беладонны, злой и жадной хозяйки универмага «Слеза ребенка», потому что не хочет обманывать детей и ложью выманивать у них деньги для Беладонны. Хозяйка начинает безжалостно преследовать поросенка, который мог приносить ей неплохой доход. Ей помогают тупой начальник полиции Фокстрот и суетливые сыщики Добер и Пинчер. Но Фунтик случайно встречает в лесу дядюшку Мокуса и Бамбино - циркачей и отправляется с ними в путешествие навстречу новой жизни ...

Цитаты

— Дети, подайте на домики для бездо-о-омных поросят!
— Лучший кофе на дороге: отхлебнёшь — протянешь ноги!
— Нюхни... У тебя денежки есть?
— Нет…
— Вынюхни, вынюхни!!!
— Хозяйка, пули свистели над головой…
— А сапоги над головой не свистели?!!
— Ах, как это сложно — иметь миллион!
— Начинацию операю! То есть, операцию начинаю…
— Болото — дом для бегемота. Но нам сидеть тут неохота.
— Дядюшка Мокус, можно, я кину в них грязью?
— Не надо, Бамбино. У них могут быть маленькие дети, которые наверняка любят цирк.
— Где надо ловить рыбу?
— В речке.
— А циркачей?
— В озере!!!
— Они нас не узнали! Мы — охотник с собакой!..
— Так я обманул одиннадцать девочек, трёх мальчиков и одного очень доброго старичка.
— Дети плачут, а родители платят.
— У меня много разных талантов.
— Щекотки боится, но кушает хорошо!
— Гостиница называется «Три дороги» — значит, за всё платить втридорога.
— Самородок… ну просто хватай и беги!
— В наше время даже сейфам нельзя доверять! Мне было бы так одиноко без моего миллиона…
— Мадам, подайте нам руку!
— Или хотя бы ручку этой сумочки…
— Разбежалась! А миллион вам не надо?
— Добер-старший, лучший сыщик с дипломом!
— Пинчер-младший, лучший сыщик без диплома!
— Подари свой диплом лягушкам, щенок!
— Арестовать! Догнать! То есть сначала догнать, а потом арестовать!
— Мне для работы своей головы не жаль!
— С ними всегда так: сначала ты на них едешь, потом ─ они на тебе.
— Алло, шеф! Бабушку взяли в плен, а мы попали в утиль.
— Дама приятной наружности.
— Ага, вот такой окружности!
1. "Неуловимый Фунтик. 1 серия" 1986г
2. "Фунтик и сыщики. 2 серия" 1986г.
3. "Фунтик и старушка с усами. 3 серия" 1987г.
4. "Фунтик в цирке. 4 серия" 1988г.
Доп. информация:

Релиз группы:
Трансляция спутникового канала: "Карусель"
Качество видео: DVB
Формат видео: MPEG-PS
Видео: MPEG2 Video, 720x576, 25 fps, 3600 kbps
Аудио: MPEG Audio, 2 сh, 48 kHz, 192 kbps

MediaInfo

D:\Приключения Фунтика\1c. Неуловимый Фунтик (1986)_DVB by SLuMeP.mpg
General
Complete name : D:\Приключения Фунтика\1c. Неуловимый Фунтик (1986)_DVB by SLuMeP.mpg
Format : MPEG-PS
File size : 281 MiB
Duration : 10mn 10s
Overall bit rate mode : Variable
Overall bit rate : 3 863 Kbps
Writing library : (c) 1998-2010 Womble Multimedia, Inc. / MPEG Video Wizard DVD 5.0.0.114 (01/2010) / Apr 20 2010
Video #224
ID : 224 (0xE0)
Format : MPEG Video
Format version : Version 2
Format profile : Main@Main
Format settings, BVOP : Yes
Format settings, Matrix : Custom
Duration : 10mn 10s
Bit rate mode : Variable
Bit rate : 3 594 Kbps
Maximum bit rate : 5 000 Kbps
Width : 720 pixels
Height : 576 pixels
Display aspect ratio : 4:3
Frame rate : 25.000 fps
Standard : PAL
Color space : YUV
Chroma subsampling : 4:2:0
Bit depth : 8 bits
Scan type : Interlaced
Scan order : Top Field First
Compression mode : Lossy
Bits/(Pixel*Frame) : 0.347
Stream size : 261 MiB (93%)
Writing library : (c) 1998-2010 Womble Multimedia, Inc. / MPEG Video Wizard DVD 5.0.0.114 (01/2010) / Apr 20 2010
Audio #192
ID : 192 (0xC0)
Format : MPEG Audio
Format version : Version 1
Format profile : Layer 2
Duration : 10mn 10s
Bit rate mode : Constant
Bit rate : 192 Kbps
Channel(s) : 2 channels
Sampling rate : 48.0 KHz
Compression mode : Lossy
Stream size : 14.0 MiB (5%)
Menu
[Профиль] [ЛС]
Кто просматривает тему:

Форум Тема Автор Размер
Фильмы 2011 года 007: Казино Рояль / Casino Royale (Мартин Кэмпбелл / Martin Campbell) [2006, Германия, США, Великобритания, Чехия, боевик, триллер, приключения, BDRip] Dub [Полная версия / UnCut] painkiller 1.46 GB
Фильмы (HD Rips | 720p, 1080p) 007: Спектр / Spectre (Сэм Мендес) [2015 г., Боевик, триллер, приключения, BDRip 720p] DUB (Лицензия) + AVO (Чадов) + SUB BOSS 12.73 GB
Фильмы (HD DVD, Blu-ray и BDRemux) 007: СПЕКТР / Spectre (Сэм Мендес) [2015 г., боевик, триллер, приключения, Blu-Ray 1080p] Dub [Лицензия] BOSS 41.9 GB
Фильмы (HD DVD, Blu-ray и BDRemux) 007: СПЕКТР / Spectre (Сэм Мендес) [2015 г., боевик, триллер, приключения, Blu-Ray Remux 1080p] Dub [Лицензия] BOSS 32.5 GB
Фильмы 2015 года 007: СПЕКТР / Spectre (Сэм Мендес) [2015, боевик, триллер, приключения] HDRip | [DUB] [Лицензия] BOSS 1.47 GB
Фильмы 2010 года 127 Часов / 127 Hours (Дэнни Бойл / Danny Boyle) [2010, США, Великобритания, триллер, драма, приключения, биография, BDRip-AVC] Dub + 2x DVO (Кубик в кубе, OzzTV) + AVO (Сербин) + Original + Sub... TorrentFilm 3.79 GB
Фильмы 2010 года 127 Часов / 127 Hours (Дэнни Бойл / Danny Boyle) [2010, США, Триллер, биография, драма, приключения, BDRip] Dub + Original (Eng) + Subs (Rus, Eng) TorrentFilm 1.75 GB
Классика зарубежного кино 20000 лье под водой / 20000 Leagues Under the Sea (Ричард Флайшер / Richard Fleischer) [1954, США, Фантастика, фэнтези, драма, приключения, WEB-DLRip] MVO (Светла) Russian Mafia 1.46 GB
Показать сообщения:    

Текущее время: Сегодня 18:28

Часовой пояс: GMT



Вы не можете начинать темы
Вы не можете отвечать на сообщения
Вы не можете редактировать свои сообщения
Вы не можете удалять свои сообщения
Вы не можете голосовать в опросах
Вы не можете прикреплять файлы к сообщениям
Вы не можете скачивать файлы