Приключения Паддингтона / Paddington (Пол Кинг / Paul King) [2014, комедия, приключения, семейный, HDRip] [iTunes]

 
Автор Сообщение

AleksSin ®

Пол:

Стаж: 6 лет

Сообщений: 218



Награды: 4 (Подробнее)

Mega Seeder 1 (Количество: 1) Mega Seeder 4 (Количество: 1) Mega Seeder 2 (Количество: 1)
Торрент-статистика

Создавать темы 27-Мар-2015 18:13

[Цитировать]

Приключения Паддингтона / Paddington«Пожалуйста, присмотрите за этим медведем. Спасибо» Страна: Великобритания, Франция
Жанр: комедия, приключения, семейный
Год выпуска: 2014
Продолжительность: 01:35:12
Перевод: Дублированное [iTunes]
Cубтитры: Английские
Оригинальная аудиодорожка: Английский
Режиссер: Пол Кинг / Paul King
В ролях: Бен Уишоу, Николь Кидман, Хью Бонневилль, Салли Хокинс, Джули Уолтерс, Мадлен Харрис, Сэмюэл Джослин, Джим Бродбент, Питер Капальди, Имелда Стонтон
Описание: Познакомьтесь, это медведь по имени Паддингтон из дремучего Перу. Он приехал в Лондон, чтобы обрести семью и стать настоящим английским джентльменом. На пути к этой цели его ожидают невероятные приключения, полные юмора и опасностей.

Качество видео: HDRip (Исх. BDRip 720p)
Формат видео: AVI
Видео кодек: XviD
Аудио кодек: АС3
Видео: 720x304 (2.37:1), 23.976 fps, XviD build 73 ~2230 kbps avg, 0.43 bit/pixel
Аудио #1: 48 kHz, AC3 Dolby Digital, 3/2 (L,C,R,l,r) + LFE ch, ~384.00 kbps avg (Русский)
Аудио #2: 48 kHz, AC3 Dolby Digital, 3/2 (L,C,R,l,r) + LFE ch, ~448.00 kbps avg (Английский)

MediaInfo

Общее
Полное имя : S:ФильмыПриключения Паддингтона. 2014. HDRip. (AleksSin)Приключения Паддингтона. 2014. HDRip. 2.05 (AleksSin).avi
Формат : AVI
Формат/Информация : Audio Video Interleave
Профиль формата : OpenDML
Размер файла : 2,05 Гбайт
Продолжительность : 1 ч. 35 м.
Общий поток : 3081 Кбит/сек
Программа кодирования : VirtualDubModRus 1.5.10.2 (build 2542/release)
Библиотека кодирования : VirtualDubMod build 2542/release
Видео
Идентификатор : 0
Формат : MPEG-4 Visual
Профиль формата : Advanced Simple@L5
Параметр BVOP формата : 1
Параметр QPel формата : Нет
Параметр GMC формата : Без точки перехода
Параметр матрицы формата : Выборочная
Идентификатор кодека : XVID
Идентификатор кодека/Подсказка : XviD
Продолжительность : 1 ч. 35 м.
Битрейт : 2230 Кбит/сек
Ширина : 720 пикс.
Высота : 304 пикс.
Соотношение сторон : 2,35:1
Частота кадров : 23,976 кадр/сек
Цветовое пространство : YUV
Подвыборка цветности : 4:2:0
Битовая глубина : 8 бит
Тип развёртки : Прогрессивная
Метод сжатия : С потерями
Бит/(Пиксели*Кадры) : 0.425
Размер потока : 1,48 Гбайт (72%)
Библиотека кодирования : XviD 73
Аудио #1
Идентификатор : 1
Формат : AC-3
Формат/Информация : Audio Coding 3
Расширение режима : CM (complete main)
Идентификатор кодека : 2000
Продолжительность : 1 ч. 35 м.
Вид битрейта : Постоянный
Битрейт : 384 Кбит/сек
Каналы : 6 каналов
Расположение каналов : Front: L C R, Side: L R, LFE
Частота : 48,0 КГц
Битовая глубина : 16 бит
Метод сжатия : С потерями
Размер потока : 261 Мбайт (12%)
Выравнивание : Разделение по промежуткам
Продолжительность промежутка : 42 мс. (1,00 видеокадр)
Время предзагрузки промежутка : 500 ms
Аудио #2
Идентификатор : 2
Формат : AC-3
Формат/Информация : Audio Coding 3
Расширение режима : CM (complete main)
Идентификатор кодека : 2000
Продолжительность : 1 ч. 35 м.
Вид битрейта : Постоянный
Битрейт : 448 Кбит/сек
Каналы : 6 каналов
Расположение каналов : Front: L C R, Side: L R, LFE
Частота : 48,0 КГц
Битовая глубина : 16 бит
Метод сжатия : С потерями
Размер потока : 305 Мбайт (15%)
Выравнивание : Разделение по промежуткам
Продолжительность промежутка : 42 мс. (1,00 видеокадр)
Время предзагрузки промежутка : 500 ms

Скриншоты

[Профиль] [ЛС]
Кто просматривает тему:

Форум Тема Автор Размер
Фильмы 2011 года 007: Казино Рояль / Casino Royale (Мартин Кэмпбелл / Martin Campbell) [2006, Германия, США, Великобритания, Чехия, боевик, триллер, приключения, BDRip] Dub [Полная версия / UnCut] painkiller 1.46 GB
Фильмы (HD Rips | 720p, 1080p) 007: Спектр / Spectre (Сэм Мендес) [2015 г., Боевик, триллер, приключения, BDRip 720p] DUB (Лицензия) + AVO (Чадов) + SUB BOSS 12.73 GB
Фильмы (HD DVD, Blu-ray и BDRemux) 007: СПЕКТР / Spectre (Сэм Мендес) [2015 г., боевик, триллер, приключения, Blu-Ray 1080p] Dub [Лицензия] BOSS 41.9 GB
Фильмы (HD DVD, Blu-ray и BDRemux) 007: СПЕКТР / Spectre (Сэм Мендес) [2015 г., боевик, триллер, приключения, Blu-Ray Remux 1080p] Dub [Лицензия] BOSS 32.5 GB
Фильмы 2015 года 007: СПЕКТР / Spectre (Сэм Мендес) [2015, боевик, триллер, приключения] HDRip | [DUB] [Лицензия] BOSS 1.47 GB
Фильмы 2010 года 127 Часов / 127 Hours (Дэнни Бойл / Danny Boyle) [2010, США, Великобритания, триллер, драма, приключения, биография, BDRip-AVC] Dub + 2x DVO (Кубик в кубе, OzzTV) + AVO (Сербин) + Original + Sub... TorrentFilm 3.79 GB
Фильмы 2010 года 127 Часов / 127 Hours (Дэнни Бойл / Danny Boyle) [2010, США, Триллер, биография, драма, приключения, BDRip] Dub + Original (Eng) + Subs (Rus, Eng) TorrentFilm 1.75 GB
Классика зарубежного кино 20000 лье под водой / 20000 Leagues Under the Sea (Ричард Флайшер / Richard Fleischer) [1954, США, Фантастика, фэнтези, драма, приключения, WEB-DLRip] MVO (Светла) Russian Mafia 1.46 GB
Показать сообщения:    

Текущее время: Сегодня 14:35

Часовой пояс: GMT



Вы не можете начинать темы
Вы не можете отвечать на сообщения
Вы не можете редактировать свои сообщения
Вы не можете удалять свои сообщения
Вы не можете голосовать в опросах
Вы не можете прикреплять файлы к сообщениям
Вы не можете скачивать файлы