Приключения Незнайки и его друзей (Леонид Аристов, Юрий Трофимов, Кирилл Малянтович, Александр Боголюбов, Юрий Клепацкий) [1971-1973, СССР, Мультипликационный сериал, DVDRip]

 
Автор Сообщение

TorrentFilm ®

Пол:

Стаж: 2 года

Сообщений: 7741



Награды: Нет

Торрент-статистика

Создавать темы 09-Янв-2016 00:12

[Цитировать]

Приключения Незнайки и его друзей
Страна: СССР
Жанр: Мультипликационный сериал
Продолжительность: 02:54:28
Год выпуска: 1971-1973
Перевод: Не требуется
Русские субтитры: нет
Режиссёр: Леонид Аристов, Юрий Трофимов, Кирилл Малянтович, Александр Боголюбов, Юрий Клепацкий
Роли озвучивали: Зиновий Гердт, Зинаида Нарышкина, Маргарита Корабельникова, Татьяна Дмитриева, Александра Бабаева, Рина Зеленая, Мария Виноградова
Описание: В Цветочном городе живут коротышки - маленькие человечки, малыши и малышки: Астроном Стекляшкин, поэт Цветик, ученый Знайка, доктор Пилюлькин, музыкант Гусля, художник Тюбик, механики Винтик и Шпунтик, Пончик, Сиропчик и многие-многие другие. Но самым известным среди коротышек был малыш по имени Незнайка, который прославился тем, что ничего не знал. С удивительными жителями то и дело случаются необыкновенные истории, и Вы их неприменно узнаете.
Доп. информация:
1. Коротышки из цветочного города 1971
режиссер: Юрий Трофимов
2. Незнайка за рулем 1972
режиссер: Юрий Клепацкий
3. Незнайка музыкант 1972
режиссер: Карло Сулакаури
4. Незнайка поэт 1971
режиссер: Василий Голиков
5. Незнайка художник 1972
режиссер: Кирилл Малянтович
6. Как Незнайка придумал воздушный шар 1972
режиссер: Леонид Аристов
7. Воздушное путешествие 1972
режиссер: Александр Боголюбов
8. Незнайка в зеленом городе 1972
режиссер: Юрий Трофимов
9. Незнайка встречается с друзьями 1972
режиссер: Кирилл Малянтович
10. Возвращение 1973
режиссер: Александр Боголюбов
Семпл: http://multi-up.com/1083004
Качество: DVDRip
Формат: AVI
Видео: 688x512 (1.34:1), 25 fps, XviD build 50, 1981 kbps avg, 0.23 bit/pixel
Аудио: 48 kHz, AC3 Dolby Digital, 2/0 (L,R) ch, 192 kbps
Субтитры: нет

Подробные технические данные

ОбщееПолное имя : D:\Мультфильмы советские\Приключения Незнайки и его друзей\01. Коротышки из цветочного города.aviФормат : AVIФормат/Информация : Audio Video InterleaveРазмер файла : 267 МбайтПродолжительность : 17 м.Общий поток : 2184 Кбит/секПрограмма кодирования : VirtualDubMod 1.5.10.3 | www.virtualdub-fr.org || (build 2550/release)Библиотека кодирования : VirtualDubMod build 2550/release
ВидеоИдентификатор : 0Формат : MPEG-4 VisualПрофиль формата : Advanced Simple@L5Параметр BVOP формата : 1Параметр QPel формата : НетПараметр GMC формата : Без точки переходаПараметр матрицы формата : Default (MPEG)Идентификатор кодека : XVIDИдентификатор кодека/Подсказка : XviDПродолжительность : 17 м.Битрейт : 1982 Кбит/секШирина : 688 пикселейВысота : 512 пикселейСоотношение сторон : 4:3Частота кадров : 25,000 кадров/секЦветовое пространство : YUVСубдискретизация насыщенности : 4:2:0Битовая глубина : 8 битТип развёртки : ПрогрессивнаяМетод сжатия : С потерямиБит/(Пиксели*Кадры) : 0.225Размер потока : 242 Мбайт (91%)Библиотека кодирования : XviD 1.2.1 (UTC 2008-12-04)
АудиоИдентификатор : 1Формат : AC-3Формат/Информация : Audio Coding 3Расширение режима : CM (complete main)Параметр Endianness формата : BigИдентификатор кодека : 2000Продолжительность : 17 м.Вид битрейта : ПостоянныйБитрейт : 192 Кбит/секКаналы : 2 каналаРасположение каналов : Front: L RЧастота : 48,0 КГцБитовая глубина : 16 битМетод сжатия : С потерямиРазмер потока : 23,5 Мбайт (9%)Выравнивание : Разделение по промежуткамПродолжительность промежутка : 40 мс. (1,00 видеокадр)Время предзагрузки промежутка : 500 мс.
сравнение с сережей
[Профиль] [ЛС]
Кто просматривает тему:

Форум Тема Автор Размер
Фильмы 2011 года 007: Казино Рояль / Casino Royale (Мартин Кэмпбелл / Martin Campbell) [2006, Германия, США, Великобритания, Чехия, боевик, триллер, приключения, BDRip] Dub [Полная версия / UnCut] painkiller 1.46 GB
Фильмы (HD Rips | 720p, 1080p) 007: Спектр / Spectre (Сэм Мендес) [2015 г., Боевик, триллер, приключения, BDRip 720p] DUB (Лицензия) + AVO (Чадов) + SUB BOSS 12.73 GB
Фильмы (HD DVD, Blu-ray и BDRemux) 007: СПЕКТР / Spectre (Сэм Мендес) [2015 г., боевик, триллер, приключения, Blu-Ray 1080p] Dub [Лицензия] BOSS 41.9 GB
Фильмы (HD DVD, Blu-ray и BDRemux) 007: СПЕКТР / Spectre (Сэм Мендес) [2015 г., боевик, триллер, приключения, Blu-Ray Remux 1080p] Dub [Лицензия] BOSS 32.5 GB
Фильмы 2015 года 007: СПЕКТР / Spectre (Сэм Мендес) [2015, боевик, триллер, приключения] HDRip | [DUB] [Лицензия] BOSS 1.47 GB
Фильмы 2010 года 127 Часов / 127 Hours (Дэнни Бойл / Danny Boyle) [2010, США, Великобритания, триллер, драма, приключения, биография, BDRip-AVC] Dub + 2x DVO (Кубик в кубе, OzzTV) + AVO (Сербин) + Original + Sub... TorrentFilm 3.79 GB
Фильмы 2010 года 127 Часов / 127 Hours (Дэнни Бойл / Danny Boyle) [2010, США, Триллер, биография, драма, приключения, BDRip] Dub + Original (Eng) + Subs (Rus, Eng) TorrentFilm 1.75 GB
Классика зарубежного кино 20000 лье под водой / 20000 Leagues Under the Sea (Ричард Флайшер / Richard Fleischer) [1954, США, Фантастика, фэнтези, драма, приключения, WEB-DLRip] MVO (Светла) Russian Mafia 1.46 GB
Показать сообщения:    

Текущее время: Сегодня 14:44

Часовой пояс: GMT



Вы не можете начинать темы
Вы не можете отвечать на сообщения
Вы не можете редактировать свои сообщения
Вы не можете удалять свои сообщения
Вы не можете голосовать в опросах
Вы не можете прикреплять файлы к сообщениям
Вы не можете скачивать файлы