Приключения на троих / Which Way To... / 13 серий из 14 [2008-2009, Документальный, познавательный, HDTVRip 720p]

 
Автор Сообщение

TorrentFilm ®

Пол:

Стаж: 2 года

Сообщений: 7741



Награды: Нет

Торрент-статистика

Создавать темы 12-Май-2015 00:04

[Цитировать]

Приключения на троихWhich Way To...
-Годы выпуска: 2008-2009
Страна: Канада
Производство: Eager Brothers Productions
Жанр: Документальный, познавательный, природа, путешествия
Продолжительность: 13 x ~00:45:00
В главных ролях: Jeff Eagar, Chris Eagar, Steve Eagar-Перевод: Профессиональный (трехголосый, закадровый)
Русские субтитры: нет-Описание: Братья Игеры - Джефф, Крис и Стив всегда путешествуют по миру втроём. Для своих поездок они выбирают самые экзотические страны и самые разные виды транспорта: в Индии - авторикшу, в Лапландии - оленью упряжку, в Египте - фелуку, в Никарагуа - мотоциклы, на Филиппинах - велосипеды, а в Перу путешествуют автостопом или даже просто идут пешком по Англии, Японии и Непалу. Вдалеке от обычных туристических маршрутов, в окружении потрясающих видов дикой природы и бурлящих улиц городов, братья повсюду встречают людей с тёплым сердцем и щедрой культурой. Откройте для себя мир братьев-путешественников и их незабываемых странствий.-Тип релиза: HDTVRip 720p
Контейнер: MKV-Видео: AVC H.264, 1280x720p (16:9), 25p fps, ~3250 kbps, ~0.14,1 bits/pixel
Аудио 1: Russian, MP2, 48KHz, 2 channels, 192 kbps
Аудио 2: English, MP2, 48KHz, 2 channels, 192 kbps-Источник: Рип с HDTV-записи телеканала Travel+Adventure HD
Автор рипа - san007-Дополнительная информация: Телеканал Travel+Adventure HD почти во всех своих программах обрезает финальные титры (исключение - "Общепит" и "Базарный день"). Поэтому не удивляйтесь тому, что каждая серия будет резко заканчиваться через 1-2 секунды после последнего слова сказанного переводчиком.
В раздачу включен трейлер передачи который выполняет роль семпла. Вы можете скачать сначала только его, чтобы оценить качество картинки и суть самой передачи.
-Раздача в HDTV 1080i

Раздачи с Travel+Adventure HD

Путешествие на край света с Артом Вольфом: 1080i, 720p
Путешествие за красотой: 1080i, 720p

Список эпизодов

Which Way To... - Trailer (Трейлер передачи от Travel+Adventure HD)
S01E02 Peru (Перу)
S01E03 Lapland (Лапландия)
S01E04 Egypt (Египет)
S01E05 The Philippines (Филиппины)
S01E06 Japan (Япония)
S01E07 Canada-1 (Канада, о. Кейп Бретон)

S02E01 Nicaragua (Никарагуа)
S02E02 Morocco (Марокко)
S02E03 England (Англия)
S02E04 Canada-2 (Канада, Нунавут)
S02E05 Nepal (Непал)
S02E06 Bangladesh (Бангладеш)
S02E07 Canada-3 (Канада, Ньюфаундленд)

Отсуствие первой серии первого сезона

В раздаче отсутствует серия про Индию S01E01, поскольку канал в HD её не показывал и никогда не покажет.
Эта серия снималась на год раньше остальных и выпускалась только на DVD, с SD-разрешением, соотношением сторон 4:3 и без русского перевода.
Желающие посмотреть этот эпизод в 480p на английском - смотрите с Youtube

MediaInfo

Format : Matroska
Format version : Version 4 / Version 2
File size : 1.12 GiB
Duration : 43mn 58s
Overall bit rate : 3 637 Kbps
Writing application : mkvmerge v7.7.0 ('Six Voices') 64bit
Writing library : libebml v1.3.1 + libmatroska v1.4.2
Video
ID : 1
Format : AVC
Format/Info : Advanced Video Codec
Format profile : High@L4.1
Format settings, CABAC : Yes
Format settings, ReFrames : 8 frames
Codec ID : V_MPEG4/ISO/AVC
Duration : 43mn 58s
Bit rate : 3 250 Kbps
Width : 1 280 pixels
Height : 720 pixels
Display aspect ratio : 16:9
Frame rate mode : Constant
Frame rate : 25.000 fps
Color space : YUV
Chroma subsampling : 4:2:0
Bit depth : 8 bits
Scan type : Progressive
Bits/(Pixel*Frame) : 0.141
Stream size : 1 000 MiB (87%)
Writing library : x264 core 146 r2538kMod 121396c
Encoding settings : cabac=1 / ref=8 / deblock=1:-1:-1 / analyse=0x3:0x133 / me=umh / subme=9 / psy=1 / fade_compensate=0.00 / psy_rd=1.00:0.10 / mixed_ref=1 / me_range=24 / chroma_me=1 / trellis=2 / 8x8dct=1 / cqm=0 / deadzone=21,11 / fast_pskip=1 / chroma_qp_offset=-3 / threads=6 / lookahead_threads=1 / sliced_threads=0 / nr=0 / decimate=1 / interlaced=0 / bluray_compat=0 / constrained_intra=0 / fgo=0 / bframes=8 / b_pyramid=2 / b_adapt=2 / b_bias=0 / direct=3 / weightb=1 / open_gop=0 / weightp=2 / keyint=250 / keyint_min=25 / scenecut=40 / intra_refresh=0 / rc_lookahead=60 / rc=2pass / mbtree=1 / bitrate=3250 / ratetol=1.0 / qcomp=0.60 / qpmin=0 / qpmax=69 / qpstep=4 / cplxblur=20.0 / qblur=0.5 / ip_ratio=1.40 / aq=1:1.00
Default : Yes
Forced : No
Audio #1
ID : 2
Format : MPEG Audio
Format version : Version 1
Format profile : Layer 2
Mode : Joint stereo
Mode extension : Intensity Stereo + MS Stereo
Codec ID : A_MPEG/L2
Codec ID/Hint : MP2
Duration : 43mn 58s
Bit rate mode : Constant
Bit rate : 192 Kbps
Channel(s) : 2 channels
Sampling rate : 48.0 KHz
Compression mode : Lossy
Stream size : 60.4 MiB (5%)
Title : Russian
Language : Russian
Default : Yes
Forced : No
Audio #2
ID : 3
Format : MPEG Audio
Format version : Version 1
Format profile : Layer 2
Mode : Joint stereo
Mode extension : Intensity Stereo + MS Stereo
Codec ID : A_MPEG/L2
Codec ID/Hint : MP2
Duration : 43mn 58s
Bit rate mode : Constant
Bit rate : 192 Kbps
Channel(s) : 2 channels
Sampling rate : 48.0 KHz
Compression mode : Lossy
Stream size : 60.4 MiB (5%)
Title : English
Language : English
Default : No
Forced : No
[Профиль] [ЛС]
Кто просматривает тему:

Форум Тема Автор Размер
Фильмы 2011 года 007: Казино Рояль / Casino Royale (Мартин Кэмпбелл / Martin Campbell) [2006, Германия, США, Великобритания, Чехия, боевик, триллер, приключения, BDRip] Dub [Полная версия / UnCut] painkiller 1.46 GB
Фильмы (HD Rips | 720p, 1080p) 007: Спектр / Spectre (Сэм Мендес) [2015 г., Боевик, триллер, приключения, BDRip 720p] DUB (Лицензия) + AVO (Чадов) + SUB BOSS 12.73 GB
Фильмы (HD DVD, Blu-ray и BDRemux) 007: СПЕКТР / Spectre (Сэм Мендес) [2015 г., боевик, триллер, приключения, Blu-Ray 1080p] Dub [Лицензия] BOSS 41.9 GB
Фильмы (HD DVD, Blu-ray и BDRemux) 007: СПЕКТР / Spectre (Сэм Мендес) [2015 г., боевик, триллер, приключения, Blu-Ray Remux 1080p] Dub [Лицензия] BOSS 32.5 GB
Фильмы 2015 года 007: СПЕКТР / Spectre (Сэм Мендес) [2015, боевик, триллер, приключения] HDRip | [DUB] [Лицензия] BOSS 1.47 GB
Фильмы 2010 года 127 Часов / 127 Hours (Дэнни Бойл / Danny Boyle) [2010, США, Великобритания, триллер, драма, приключения, биография, BDRip-AVC] Dub + 2x DVO (Кубик в кубе, OzzTV) + AVO (Сербин) + Original + Sub... TorrentFilm 3.79 GB
Фильмы 2010 года 127 Часов / 127 Hours (Дэнни Бойл / Danny Boyle) [2010, США, Триллер, биография, драма, приключения, BDRip] Dub + Original (Eng) + Subs (Rus, Eng) TorrentFilm 1.75 GB
Классика зарубежного кино 20000 лье под водой / 20000 Leagues Under the Sea (Ричард Флайшер / Richard Fleischer) [1954, США, Фантастика, фэнтези, драма, приключения, WEB-DLRip] MVO (Светла) Russian Mafia 1.46 GB
Показать сообщения:    

Текущее время: Сегодня 02:14

Часовой пояс: GMT



Вы не можете начинать темы
Вы не можете отвечать на сообщения
Вы не можете редактировать свои сообщения
Вы не можете удалять свои сообщения
Вы не можете голосовать в опросах
Вы не можете прикреплять файлы к сообщениям
Вы не можете скачивать файлы