Приключения Мишек Гамми / Adventures of the Gummi Bears [S01-06] (1985-1991) DVDRip-AVC

 
Author Message

DOMINION ®

Gender:

Longevity: 8 months 3 days

Posts: 1096



: 6 ()

Mega Seeder 1 (1) Top Releaser 3 (1) За внесенный вклад в развитие сайта (1)
Торрент-статистика

Post 08-Nov-2018 08:31

[Quote]

Информация о фильме
Название : Приключения Мишек Гамми
Оригинальное название : Adventures of the Gummi Bears
Год выхода : 1985-1991
Жанр : мультфильм, фэнтези, семейный
Режиссеры : Дэвид Блок, Арт Вителло, Алан Заслов
Роли озвучивали : Джун Форэй, Ноэль Норт, Лоренцо Мьюзик, Кэти Ли, Кори Бертон, Майкл Рай, Уилл Райан, Пол Уинчелл, Брайан Каммингс, Роб Полсен
Роли дублировали : Людмила Гнилова, Лариса Брохман, Надежда Подъяпольская, Елена Войновская, Александр Воеводин, Константин Карасик, Александр Коврижных, Дмитрий Курта, Борис Шувалов, Никита Прозоровский

Описание : Красочный и добрый мультсериал о приключениях Мишек Гамми — сказочных медведях, тайно живущих рядом с людьми, и о которых ходят легенды по всей земле, ведь они не раз спасали королевство и подданых короля от нападений злых гоблинов под руководством хитрого графа Игторна и другой нечистой силы. Этих медведей полюбят все дети. Сказки про них нам расскажет Дисней. Ловкие, смелые, добрые, милые — Преданней вы не встречали друзей. Мишки Гамми нас рассмешат Забавными прыжками.
Доп. информация : Дубляж от студии "Пифагор" (2009 г.) отличается от привычного некоторым дубляжа телекомпании Останкино (1992 г.).

Страна : США
Производство : Walt Disney Television Animation
Продолжительность : 65 серий по ~00:22:00
Перевод : Профессиональный (дублированный) Дубляж студии "Пифагор" (2009 г.) для канала СТС
Файл
Формат видео : MP4
Качество : DVDRip-AVC
Видео : 720x544 (4:3), 25 fps, Advanced Video Codec, ~2 000 kbps avg, 0.204 bit/pixel
Звук : 48 kHz, Advanced Audio Codec, 2 ch (Front: L R) ~128.00 kbps avg
Субтитры : нет

Список серий :

Сезон 1:
Эпизод №1. Новое начало / A New Beginning
Эпизод №2. Коварный скульптор/Колдун - повелитель огня // The Sinister Sculptor/Zummi Makes It Hot
Эпизод №3. Однажды он придет/Можно я его оставлю? // The Sinister Sculptor/Zummi Makes It Hot?
Эпизод №4. Гамми в позолоченной клетке / A Gummi in a Gilded Cage
Эпизод №5. Прорицатель/Гигант и камень желаний // The Oracle/When You Wish Upon a Stone
Эпизод №6. Гамми или кто-то другой / A Gummi by Any Other Name
Эпизод №7. Беги домой, плутишка/Охота будет удачной // Loopy, Go Home/A-Hunting We Will Go
Эпизод №8. Нерешительный/Ночь Горгульи // The Fence Sitter/Night of the Gargoyle
Эпизод №9. Секрет сока / The Secret of the Juice
Эпизод №10. Кисло-сладкий ворчун/Дуэль колдунов // Sweet and Sour Gruffi/Duel of the Wizards
Эпизод №11. То что ты видишь, это Я // What You See Is Me/Toadie's Wild Ride
Эпизод №12. Проблемы с пузырями / Bubble Trouble/Gummi in a Strange Land
Эпизод №13. Луч все исправит / Light Makes Right
Сезон 2:
Эпизод №1. Вверх, вверх и прочь / Up, Up, and Away
Эпизод №2. Быстрее, чем спешащий Толстун/На несколько северенов больше // Faster Than a Speeding Tummi/For a Few Sovereigns More
Эпизод №3. За рекой у троллей/Чихнешь - проиграл // Over the River and Through the Trolls/You Snooze, You Lose
Эпизод №4. Мститель в малиновом / The Crimson Avenger
Эпизод №5. Забавы рыцарей / A Hard Dazed Knight/Do Unto Ogres
Эпизод №6. Нелегкая работа колдуна / For Whom the Spell Holds
Эпизод №7. Медвежья потеря/Угадай, кто придет на ужин // Little Bears Lost/Guess Who's Gumming to Dinner
Эпизод №8. За морями, за горами / My Gummi Lies Over the Ocean
Сезон 3:
Эпизод №1. Слишком много поваров / Too Many Cooks/Just a Tad Smarter
Эпизод №2. На твоем месте / If I Were You/Eye of the Beholder
Эпизод №3. Престо Гаммо / Presto Gummo/A Tree Grows in Dunwyn
Эпизод №4. День жуков и деревьев / Day of the Beevilweevils
Эпизод №5. По водной глади / Water Way to Go/Close Encounters of the Gummi Kind
Эпизод №6. Снег и старик / Snows Your Old Man/Boggling the Bears
Эпизод №7. Рыцарь замка Гамадун / The Knights of Gummadoon
Эпизод №8. Весели меня / Mirthy Me/Gummi Dearest
Сезон 4:
Эпизод №1. Великолепная семерка / The Magnificent Seven Gummies
Эпизод №2. Чарующая музыка // Music Hath Charms/Dress for Success
Эпизод №3. Незабываемый рыцарь // A Knight to Remember/Gummies Just Want to Have Fun
Эпизод №4. Лучше дома ничего нет // There's No Place Like Home/Color Me Gummi
Эпизод №5. Кто смеётся последним / He Who Laughs Last
Эпизод №6. Толстун сражается до последнего / Tummi's Last Stand/The Crimson Avenger Strikes Again
Эпизод №7. Бэбби Бум у Гоблина / Ogre Baby Boom/The White Knight
Эпизод №8. Добрый сосед Гамми // Good Neighbor Gummi/Girl's Knight Out
Эпизод №9. Большой обман / Top Gum
Эпизод №10 Гамми на море / Gummi's at Sea
Сезон 5:
Эпизод №1. Дорога в Урсалию / Road to Ursalia
Эпизод №2. Гамми в день и врач не нужен совсем // A Gummi a Day Keeps the Doctor Away/Let Sleeping Giants Lie
Эпизод №3. Мост через реку Гамми // Bridge on the River Gummi/Life of the Party
Эпизод №4. Королевство за пирог // My Kingdom for a Pie/The World According to Gusto
Эпизод №5. Гоблин на час / Ogre for a Day
Эпизод №6. Проблемы принцессы // Princess Problems/A Gummi Is a Gummi's Best Friend
Эпизод №8. Просить, рыть нору и красть / Beg, Burrow, and Steal
Эпизод №9. Возвращение в Урсалию / Return to Ursalia
Сезон 6:
Эпизод №1. Работу Гамми не переделать / A Gummi's Work Is Never Done
Эпизод №2. Брат Толстун // Friar Tum/Never Give a Gummi an Even Break
Эпизод №3. Вертушка Таксфорда / Tuxford's Turnaround
Эпизод №4. Подлиза-завоеватель / Toadie the Conqueror
Эпизод №5. Колдун в стране сновидений / Zummi in Slumberland
Эпизод №6. Лоскутное одеяло Гамми / Patchwork Gummi
Эпизод №7. Торнберри спешит на помощь / Thornberry to the Rescue
Эпизод №8. И снова, Малиновый мститель / Once More, the Crimson Avenger
Эпизод №10. Королева Гарпи / Queen of the Carpies
Эпизод №11. Гритти смельчак / True Gritty
Эпизод №12. Король Икторн: Part I / King Igthorn: Part I
Эпизод №13. Король Икторн: Part II / King Igthorn: Part II
Эпизод №14. Беды Толстуна / Tummi Trouble
Эпизод №15. Стариковское кресло для мишки / Rocking Chair Bear
Эпизод №16. Поменяться лицами / Trading Faces
Эпизод №17. Пусть победит лучшая из принцесс / May the Best Princess Win
Эпизод №18. Крылья над Данвином // Wings Over Dunwyn
Эпизод №19. Обряд / The Rite Stuff

Скриншоты :

-

MediaInfo

Общее
Полное имя : L:3.РаздачаПриключения Мишек ГаммиPriklyucheniya Gammi.s1-s6s1e1.Новое начало.mp4
Формат : MPEG-4
Профиль формата : Base Media
Идентификатор кодека : isom
Размер файла : 336 Мбайт
Продолжительность : 22 м.
Режим общего битрейта : Переменный
Общий поток : 2132 Кбит/сек
Дата кодирования : UTC 2013-02-23 02:13:29
Дата пометки : UTC 2013-02-23 02:13:29
Видео
Идентификатор : 1
Формат : AVC
Формат/Информация : Advanced Video Codec
Профиль формата : High@L4.1
Параметр CABAC формата : Да
Параметр ReFrames формата : 3 кадра
Идентификатор кодека : avc1
Идентификатор кодека/Информация : Advanced Video Coding
Продолжительность : 22 м.
Битрейт : 2000 Кбит/сек
Максимальный битрейт : 3895 Кбит/сек
Ширина : 720 пикселей
Высота : 544 пикселя
Соотношение сторон : 4:3
Режим частоты кадров : Постоянный
Частота кадров : 25,000 кадров/сек
Цветовое пространство : YUV
Субдискретизация насыщенности : 4:2:0
Битовая глубина : 8 бит
Тип развёртки : Прогрессивная
Бит/(Пиксели*Кадры) : 0.204
Размер потока : 315 Мбайт (94%)
Библиотека кодирования : x264 core 65 r999kMod cc51047
Настройки программы : cabac=1 / ref=3 / deblock=1:0:0 / analyse=0x3:0x133 / me=umh / subme=9 / psy_rd=1.0:0.0 / mixed_ref=1 / me_range=16 / chroma_me=1 / trellis=1 / 8x8dct=1 / cqm=0 / deadzone=21,11 / chroma_qp_offset=-2 / threads=2 / thread_queue=2 / nr=0 / decimate=1 / mbaff=0 / bframes=3 / b_pyramid=1 / b_adapt=1 / b_bias=0 / direct=3 / wpredb=1 / keyint=250 / keyint_min=25 / scenecut=40(pre) / rc=2pass / bitrate=2000 / ratetol=1.0 / qcomp=0.60 / qpmin=10 / qpmax=51 / qpstep=4 / cplxblur=20.0 / qblur=0.5 / ip_ratio=1.40 / pb_ratio=1.30 / aq=1:1.00
Дата кодирования : UTC 2013-02-23 02:13:29
Дата пометки : UTC 2013-02-23 02:14:16
Аудио
Идентификатор : 2
Формат : AAC
Формат/Информация : Advanced Audio Codec
Профиль формата : LC
Идентификатор кодека : 40
Продолжительность : 22 м.
Вид битрейта : Переменный
Битрейт : 128 Кбит/сек
Максимальный битрейт : 146 Кбит/сек
Каналы : 2 канала
Расположение каналов : Front: L R
Частота : 48,0 КГц
Метод сжатия : С потерями
Размер потока : 20,2 Мбайт (6%)
Дата кодирования : UTC 2013-02-23 02:14:15
Дата пометки : UTC 2013-02-23 02:14:16
Общее
Полное имя : L:3.РаздачаПриключения Мишек ГаммиPriklyucheniya Gammi.s1-s6s1e10.Кисло-сладкий ворчун.mp4
Формат : MPEG-4
Профиль формата : Base Media
Идентификатор кодека : isom
Размер файла : 336 Мбайт
Продолжительность : 22 м.
Режим общего битрейта : Переменный
Общий поток : 2132 Кбит/сек
Дата кодирования : UTC 2013-02-24 00:52:30
Дата пометки : UTC 2013-02-24 00:52:30
Видео
Идентификатор : 1
Формат : AVC
Формат/Информация : Advanced Video Codec
Профиль формата : High@L4.1
Параметр CABAC формата : Да
Параметр ReFrames формата : 3 кадра
Идентификатор кодека : avc1
Идентификатор кодека/Информация : Advanced Video Coding
Продолжительность : 22 м.
Битрейт : 2000 Кбит/сек
Максимальный битрейт : 4134 Кбит/сек
Ширина : 720 пикселей
Высота : 544 пикселя
Соотношение сторон : 4:3
Режим частоты кадров : Постоянный
Частота кадров : 25,000 кадров/сек
Цветовое пространство : YUV
Субдискретизация насыщенности : 4:2:0
Битовая глубина : 8 бит
Тип развёртки : Прогрессивная
Бит/(Пиксели*Кадры) : 0.204
Размер потока : 315 Мбайт (94%)
Библиотека кодирования : x264 core 65 r999kMod cc51047
Настройки программы : cabac=1 / ref=3 / deblock=1:0:0 / analyse=0x3:0x133 / me=umh / subme=9 / psy_rd=1.0:0.0 / mixed_ref=1 / me_range=16 / chroma_me=1 / trellis=1 / 8x8dct=1 / cqm=0 / deadzone=21,11 / chroma_qp_offset=-2 / threads=2 / thread_queue=2 / nr=0 / decimate=1 / mbaff=0 / bframes=3 / b_pyramid=1 / b_adapt=1 / b_bias=0 / direct=3 / wpredb=1 / keyint=250 / keyint_min=25 / scenecut=40(pre) / rc=2pass / bitrate=2000 / ratetol=1.0 / qcomp=0.60 / qpmin=10 / qpmax=51 / qpstep=4 / cplxblur=20.0 / qblur=0.5 / ip_ratio=1.40 / pb_ratio=1.30 / aq=1:1.00
Дата кодирования : UTC 2013-02-24 00:52:30
Дата пометки : UTC 2013-02-24 00:54:24
Аудио
Идентификатор : 2
Формат : AAC
Формат/Информация : Advanced Audio Codec
Профиль формата : LC
Идентификатор кодека : 40
Продолжительность : 22 м.
Вид битрейта : Переменный
Битрейт : 128 Кбит/сек
Максимальный битрейт : 144 Кбит/сек
Каналы : 2 канала
Расположение каналов : Front: L R
Частота : 48,0 КГц
Метод сжатия : С потерями
Размер потока : 20,2 Мбайт (6%)
Дата кодирования : UTC 2013-02-24 00:54:23
Дата пометки : UTC 2013-02-24 00:54:24
Общее
Полное имя : L:3.РаздачаПриключения Мишек ГаммиPriklyucheniya Gammi.s1-s6s1e2.Коварный скульптор.mp4
Формат : MPEG-4
Профиль формата : Base Media
Идентификатор кодека : isom
Размер файла : 336 Мбайт
Продолжительность : 22 м.
Режим общего битрейта : Переменный
Общий поток : 2132 Кбит/сек
Дата кодирования : UTC 2013-02-23 02:15:23
Дата пометки : UTC 2013-02-23 02:15:23
Видео
Идентификатор : 1
Формат : AVC
Формат/Информация : Advanced Video Codec
Профиль формата : High@L4.1
Параметр CABAC формата : Да
Параметр ReFrames формата : 3 кадра
Идентификатор кодека : avc1
Идентификатор кодека/Информация : Advanced Video Coding
Продолжительность : 22 м.
Битрейт : 2000 Кбит/сек
Максимальный битрейт : 4365 Кбит/сек
Ширина : 720 пикселей
Высота : 544 пикселя
Соотношение сторон : 4:3
Режим частоты кадров : Постоянный
Частота кадров : 25,000 кадров/сек
Цветовое пространство : YUV
Субдискретизация насыщенности : 4:2:0
Битовая глубина : 8 бит
Тип развёртки : Прогрессивная
Бит/(Пиксели*Кадры) : 0.204
Размер потока : 315 Мбайт (94%)
Библиотека кодирования : x264 core 65 r999kMod cc51047
Настройки программы : cabac=1 / ref=3 / deblock=1:0:0 / analyse=0x3:0x133 / me=umh / subme=9 / psy_rd=1.0:0.0 / mixed_ref=1 / me_range=16 / chroma_me=1 / trellis=1 / 8x8dct=1 / cqm=0 / deadzone=21,11 / chroma_qp_offset=-2 / threads=2 / thread_queue=2 / nr=0 / decimate=1 / mbaff=0 / bframes=3 / b_pyramid=1 / b_adapt=1 / b_bias=0 / direct=3 / wpredb=1 / keyint=250 / keyint_min=25 / scenecut=40(pre) / rc=2pass / bitrate=2000 / ratetol=1.0 / qcomp=0.60 / qpmin=10 / qpmax=51 / qpstep=4 / cplxblur=20.0 / qblur=0.5 / ip_ratio=1.40 / pb_ratio=1.30 / aq=1:1.00
Дата кодирования : UTC 2013-02-23 02:15:23
Дата пометки : UTC 2013-02-23 02:15:54
Аудио
Идентификатор : 2
Формат : AAC
Формат/Информация : Advanced Audio Codec
Профиль формата : LC
Идентификатор кодека : 40
Продолжительность : 22 м.
Вид битрейта : Переменный
Битрейт : 128 Кбит/сек
Максимальный битрейт : 146 Кбит/сек
Каналы : 2 канала
Расположение каналов : Front: L R
Частота : 48,0 КГц
Метод сжатия : С потерями
Размер потока : 20,2 Мбайт (6%)
Дата кодирования : UTC 2013-02-23 02:15:54
Дата пометки : UTC 2013-02-23 02:15:54
Общее
Полное имя : L:3.РаздачаПриключения Мишек ГаммиPriklyucheniya Gammi.s1-s6s1e3.Однажды он придет.mp4
Формат : MPEG-4
Профиль формата : Base Media
Идентификатор кодека : isom
Размер файла : 336 Мбайт
Продолжительность : 22 м.
Режим общего битрейта : Переменный
Общий поток : 2133 Кбит/сек
Дата кодирования : UTC 2013-02-23 07:34:53
Дата пометки : UTC 2013-02-23 07:34:53
Видео
Идентификатор : 1
Формат : AVC
Формат/Информация : Advanced Video Codec
Профиль формата : High@L4.1
Параметр CABAC формата : Да
Параметр ReFrames формата : 3 кадра
Идентификатор кодека : avc1
Идентификатор кодека/Информация : Advanced Video Coding
Продолжительность : 22 м.
Битрейт : 2000 Кбит/сек
Максимальный битрейт : 4323 Кбит/сек
Ширина : 720 пикселей
Высота : 544 пикселя
Соотношение сторон : 4:3
Режим частоты кадров : Постоянный
Частота кадров : 25,000 кадров/сек
Цветовое пространство : YUV
Субдискретизация насыщенности : 4:2:0
Битовая глубина : 8 бит
Тип развёртки : Прогрессивная
Бит/(Пиксели*Кадры) : 0.204
Размер потока : 315 Мбайт (94%)
Библиотека кодирования : x264 core 65 r999kMod cc51047
Настройки программы : cabac=1 / ref=3 / deblock=1:0:0 / analyse=0x3:0x133 / me=umh / subme=9 / psy_rd=1.0:0.0 / mixed_ref=1 / me_range=16 / chroma_me=1 / trellis=1 / 8x8dct=1 / cqm=0 / deadzone=21,11 / chroma_qp_offset=-2 / threads=2 / thread_queue=2 / nr=0 / decimate=1 / mbaff=0 / bframes=3 / b_pyramid=1 / b_adapt=1 / b_bias=0 / direct=3 / wpredb=1 / keyint=250 / keyint_min=25 / scenecut=40(pre) / rc=2pass / bitrate=2000 / ratetol=1.0 / qcomp=0.60 / qpmin=10 / qpmax=51 / qpstep=4 / cplxblur=20.0 / qblur=0.5 / ip_ratio=1.40 / pb_ratio=1.30 / aq=1:1.00
Дата кодирования : UTC 2013-02-23 07:34:53
Дата пометки : UTC 2013-02-23 07:35:11
Аудио
Идентификатор : 2
Формат : AAC
Формат/Информация : Advanced Audio Codec
Профиль формата : LC
Идентификатор кодека : 40
Продолжительность : 22 м.
Вид битрейта : Переменный
Битрейт : 129 Кбит/сек
Максимальный битрейт : 166 Кбит/сек
Каналы : 2 канала
Расположение каналов : Front: L R
Частота : 48,0 КГц
Метод сжатия : С потерями
Размер потока : 20,2 Мбайт (6%)
Дата кодирования : UTC 2013-02-23 07:35:11
Дата пометки : UTC 2013-02-23 07:35:11
Общее
Полное имя : L:3.РаздачаПриключения Мишек ГаммиPriklyucheniya Gammi.s1-s6s4e6.Толстун сражается до последнего.mp4
Формат : MPEG-4
Профиль формата : Base Media
Идентификатор кодека : isom
Размер файла : 336 Мбайт
Продолжительность : 21 м.
Режим общего битрейта : Переменный
Общий поток : 2132 Кбит/сек
Дата кодирования : UTC 2013-02-26 06:09:45
Дата пометки : UTC 2013-02-26 06:09:45
Видео
Идентификатор : 1
Формат : AVC
Формат/Информация : Advanced Video Codec
Профиль формата : High@L4.1
Параметр CABAC формата : Да
Параметр ReFrames формата : 3 кадра
Идентификатор кодека : avc1
Идентификатор кодека/Информация : Advanced Video Coding
Продолжительность : 21 м.
Битрейт : 2000 Кбит/сек
Максимальный битрейт : 4537 Кбит/сек
Ширина : 720 пикселей
Высота : 544 пикселя
Соотношение сторон : 4:3
Режим частоты кадров : Постоянный
Частота кадров : 25,000 кадров/сек
Цветовое пространство : YUV
Субдискретизация насыщенности : 4:2:0
Битовая глубина : 8 бит
Тип развёртки : Прогрессивная
Бит/(Пиксели*Кадры) : 0.204
Размер потока : 315 Мбайт (94%)
Библиотека кодирования : x264 core 65 r999kMod cc51047
Настройки программы : cabac=1 / ref=3 / deblock=1:0:0 / analyse=0x3:0x133 / me=umh / subme=9 / psy_rd=1.0:0.0 / mixed_ref=1 / me_range=16 / chroma_me=1 / trellis=1 / 8x8dct=1 / cqm=0 / deadzone=21,11 / chroma_qp_offset=-2 / threads=2 / thread_queue=2 / nr=0 / decimate=1 / mbaff=0 / bframes=3 / b_pyramid=1 / b_adapt=1 / b_bias=0 / direct=3 / wpredb=1 / keyint=250 / keyint_min=25 / scenecut=40(pre) / rc=2pass / bitrate=2000 / ratetol=1.0 / qcomp=0.60 / qpmin=10 / qpmax=51 / qpstep=4 / cplxblur=20.0 / qblur=0.5 / ip_ratio=1.40 / pb_ratio=1.30 / aq=1:1.00
Дата кодирования : UTC 2013-02-26 06:09:45
Дата пометки : UTC 2013-02-26 06:11:24
Аудио
Идентификатор : 2
Формат : AAC
Формат/Информация : Advanced Audio Codec
Профиль формата : LC
Идентификатор кодека : 40
Продолжительность : 21 м.
Вид битрейта : Переменный
Битрейт : 128 Кбит/сек
Максимальный битрейт : 159 Кбит/сек
Каналы : 2 канала
Расположение каналов : Front: L R
Частота : 48,0 КГц
Метод сжатия : С потерями
Размер потока : 20,2 Мбайт (6%)
Дата кодирования : UTC 2013-02-26 06:11:20
Дата пометки : UTC 2013-02-26 06:11:24
Общее
Полное имя : L:3.РаздачаПриключения Мишек ГаммиPriklyucheniya Gammi.s1-s6s5e9.Возвращение в Урсалию.mp4
Формат : MPEG-4
Профиль формата : Base Media
Идентификатор кодека : isom
Размер файла : 335 Мбайт
Продолжительность : 22 м.
Режим общего битрейта : Переменный
Общий поток : 2132 Кбит/сек
Дата кодирования : UTC 2013-02-27 01:40:31
Дата пометки : UTC 2013-02-27 01:40:31
Видео
Идентификатор : 1
Формат : AVC
Формат/Информация : Advanced Video Codec
Профиль формата : High@L4.1
Параметр CABAC формата : Да
Параметр ReFrames формата : 3 кадра
Идентификатор кодека : avc1
Идентификатор кодека/Информация : Advanced Video Coding
Продолжительность : 22 м.
Битрейт : 2000 Кбит/сек
Максимальный битрейт : 4416 Кбит/сек
Ширина : 720 пикселей
Высота : 544 пикселя
Соотношение сторон : 4:3
Режим частоты кадров : Постоянный
Частота кадров : 25,000 кадров/сек
Цветовое пространство : YUV
Субдискретизация насыщенности : 4:2:0
Битовая глубина : 8 бит
Тип развёртки : Прогрессивная
Бит/(Пиксели*Кадры) : 0.204
Размер потока : 315 Мбайт (94%)
Библиотека кодирования : x264 core 65 r999kMod cc51047
Настройки программы : cabac=1 / ref=3 / deblock=1:0:0 / analyse=0x3:0x133 / me=umh / subme=9 / psy_rd=1.0:0.0 / mixed_ref=1 / me_range=16 / chroma_me=1 / trellis=1 / 8x8dct=1 / cqm=0 / deadzone=21,11 / chroma_qp_offset=-2 / threads=2 / thread_queue=2 / nr=0 / decimate=1 / mbaff=0 / bframes=3 / b_pyramid=1 / b_adapt=1 / b_bias=0 / direct=3 / wpredb=1 / keyint=250 / keyint_min=25 / scenecut=40(pre) / rc=2pass / bitrate=2000 / ratetol=1.0 / qcomp=0.60 / qpmin=10 / qpmax=51 / qpstep=4 / cplxblur=20.0 / qblur=0.5 / ip_ratio=1.40 / pb_ratio=1.30 / aq=1:1.00
Дата кодирования : UTC 2013-02-27 01:40:31
Дата пометки : UTC 2013-02-27 01:45:26
Аудио
Идентификатор : 2
Формат : AAC
Формат/Информация : Advanced Audio Codec
Профиль формата : LC
Идентификатор кодека : 40
Продолжительность : 22 м.
Вид битрейта : Переменный
Битрейт : 128 Кбит/сек
Максимальный битрейт : 142 Кбит/сек
Каналы : 2 канала
Расположение каналов : Front: L R
Частота : 48,0 КГц
Метод сжатия : С потерями
Размер потока : 20,1 Мбайт (6%)
Дата кодирования : UTC 2013-02-27 01:45:19
Дата пометки : UTC 2013-02-27 01:45:26
Общее
Полное имя : L:3.РаздачаПриключения Мишек ГаммиPriklyucheniya Gammi.s1-s6s6e16.Поменяться лицами.mp4
Формат : MPEG-4
Профиль формата : Base Media
Идентификатор кодека : isom
Размер файла : 333 Мбайт
Продолжительность : 21 м.
Режим общего битрейта : Переменный
Общий поток : 2132 Кбит/сек
Дата кодирования : UTC 2013-02-28 17:34:30
Дата пометки : UTC 2013-02-28 17:34:30
Видео
Идентификатор : 1
Формат : AVC
Формат/Информация : Advanced Video Codec
Профиль формата : High@L4.1
Параметр CABAC формата : Да
Параметр ReFrames формата : 3 кадра
Идентификатор кодека : avc1
Идентификатор кодека/Информация : Advanced Video Coding
Продолжительность : 21 м.
Битрейт : 2000 Кбит/сек
Максимальный битрейт : 4112 Кбит/сек
Ширина : 720 пикселей
Высота : 544 пикселя
Соотношение сторон : 4:3
Режим частоты кадров : Постоянный
Частота кадров : 25,000 кадров/сек
Цветовое пространство : YUV
Субдискретизация насыщенности : 4:2:0
Битовая глубина : 8 бит
Тип развёртки : Прогрессивная
Бит/(Пиксели*Кадры) : 0.204
Размер потока : 312 Мбайт (94%)
Библиотека кодирования : x264 core 65 r999kMod cc51047
Настройки программы : cabac=1 / ref=3 / deblock=1:0:0 / analyse=0x3:0x133 / me=umh / subme=9 / psy_rd=1.0:0.0 / mixed_ref=1 / me_range=16 / chroma_me=1 / trellis=1 / 8x8dct=1 / cqm=0 / deadzone=21,11 / chroma_qp_offset=-2 / threads=2 / thread_queue=2 / nr=0 / decimate=1 / mbaff=0 / bframes=3 / b_pyramid=1 / b_adapt=1 / b_bias=0 / direct=3 / wpredb=1 / keyint=250 / keyint_min=25 / scenecut=40(pre) / rc=2pass / bitrate=2000 / ratetol=1.0 / qcomp=0.60 / qpmin=10 / qpmax=51 / qpstep=4 / cplxblur=20.0 / qblur=0.5 / ip_ratio=1.40 / pb_ratio=1.30 / aq=1:1.00
Дата кодирования : UTC 2013-02-28 17:34:30
Дата пометки : UTC 2013-02-28 17:35:10
Аудио
Идентификатор : 2
Формат : AAC
Формат/Информация : Advanced Audio Codec
Профиль формата : LC
Идентификатор кодека : 40
Продолжительность : 21 м.
Вид битрейта : Переменный
Битрейт : 128 Кбит/сек
Максимальный битрейт : 170 Кбит/сек
Каналы : 2 канала
Расположение каналов : Front: L R
Частота : 48,0 КГц
Метод сжатия : С потерями
Размер потока : 20,1 Мбайт (6%)
Дата кодирования : UTC 2013-02-28 17:35:10
Дата пометки : UTC 2013-02-28 17:35:10
Общее
Полное имя : L:3.РаздачаПриключения Мишек ГаммиPriklyucheniya Gammi.s1-s6s6e17.Пусть победит лучшая из принцесс.mp4
Формат : MPEG-4
Профиль формата : Base Media
Идентификатор кодека : isom
Размер файла : 333 Мбайт
Продолжительность : 21 м.
Режим общего битрейта : Переменный
Общий поток : 2132 Кбит/сек
Дата кодирования : UTC 2013-02-28 21:49:12
Дата пометки : UTC 2013-02-28 21:49:12
Видео
Идентификатор : 1
Формат : AVC
Формат/Информация : Advanced Video Codec
Профиль формата : High@L4.1
Параметр CABAC формата : Да
Параметр ReFrames формата : 3 кадра
Идентификатор кодека : avc1
Идентификатор кодека/Информация : Advanced Video Coding
Продолжительность : 21 м.
Битрейт : 2000 Кбит/сек
Максимальный битрейт : 3913 Кбит/сек
Ширина : 720 пикселей
Высота : 544 пикселя
Соотношение сторон : 4:3
Режим частоты кадров : Постоянный
Частота кадров : 25,000 кадров/сек
Цветовое пространство : YUV
Субдискретизация насыщенности : 4:2:0
Битовая глубина : 8 бит
Тип развёртки : Прогрессивная
Бит/(Пиксели*Кадры) : 0.204
Размер потока : 312 Мбайт (94%)
Библиотека кодирования : x264 core 65 r999kMod cc51047
Настройки программы : cabac=1 / ref=3 / deblock=1:0:0 / analyse=0x3:0x133 / me=umh / subme=9 / psy_rd=1.0:0.0 / mixed_ref=1 / me_range=16 / chroma_me=1 / trellis=1 / 8x8dct=1 / cqm=0 / deadzone=21,11 / chroma_qp_offset=-2 / threads=2 / thread_queue=2 / nr=0 / decimate=1 / mbaff=0 / bframes=3 / b_pyramid=1 / b_adapt=1 / b_bias=0 / direct=3 / wpredb=1 / keyint=250 / keyint_min=25 / scenecut=40(pre) / rc=2pass / bitrate=2000 / ratetol=1.0 / qcomp=0.60 / qpmin=10 / qpmax=51 / qpstep=4 / cplxblur=20.0 / qblur=0.5 / ip_ratio=1.40 / pb_ratio=1.30 / aq=1:1.00
Дата кодирования : UTC 2013-02-28 21:49:12
Дата пометки : UTC 2013-02-28 21:50:17
Аудио
Идентификатор : 2
Формат : AAC
Формат/Информация : Advanced Audio Codec
Профиль формата : LC
Идентификатор кодека : 40
Продолжительность : 21 м.
Вид битрейта : Переменный
Битрейт : 128 Кбит/сек
Максимальный битрейт : 165 Кбит/сек
Каналы : 2 канала
Расположение каналов : Front: L R
Частота : 48,0 КГц
Метод сжатия : С потерями
Размер потока : 20,0 Мбайт (6%)
Дата кодирования : UTC 2013-02-28 21:50:16
Дата пометки : UTC 2013-02-28 21:50:17
Общее
Полное имя : L:3.РаздачаПриключения Мишек ГаммиPriklyucheniya Gammi.s1-s6s6e18.Крылья над Данвином.mp4
Формат : MPEG-4
Профиль формата : Base Media
Идентификатор кодека : isom
Размер файла : 332 Мбайт
Продолжительность : 21 м.
Режим общего битрейта : Переменный
Общий поток : 2133 Кбит/сек
Дата кодирования : UTC 2013-02-28 21:49:30
Дата пометки : UTC 2013-02-28 21:49:30
Видео
Идентификатор : 1
Формат : AVC
Формат/Информация : Advanced Video Codec
Профиль формата : High@L4.1
Параметр CABAC формата : Да
Параметр ReFrames формата : 3 кадра
Идентификатор кодека : avc1
Идентификатор кодека/Информация : Advanced Video Coding
Продолжительность : 21 м.
Битрейт : 2000 Кбит/сек
Максимальный битрейт : 4401 Кбит/сек
Ширина : 720 пикселей
Высота : 544 пикселя
Соотношение сторон : 4:3
Режим частоты кадров : Постоянный
Частота кадров : 25,000 кадров/сек
Цветовое пространство : YUV
Субдискретизация насыщенности : 4:2:0
Битовая глубина : 8 бит
Тип развёртки : Прогрессивная
Бит/(Пиксели*Кадры) : 0.204
Размер потока : 311 Мбайт (94%)
Библиотека кодирования : x264 core 65 r999kMod cc51047
Настройки программы : cabac=1 / ref=3 / deblock=1:0:0 / analyse=0x3:0x133 / me=umh / subme=9 / psy_rd=1.0:0.0 / mixed_ref=1 / me_range=16 / chroma_me=1 / trellis=1 / 8x8dct=1 / cqm=0 / deadzone=21,11 / chroma_qp_offset=-2 / threads=2 / thread_queue=2 / nr=0 / decimate=1 / mbaff=0 / bframes=3 / b_pyramid=1 / b_adapt=1 / b_bias=0 / direct=3 / wpredb=1 / keyint=250 / keyint_min=25 / scenecut=40(pre) / rc=2pass / bitrate=2000 / ratetol=1.0 / qcomp=0.60 / qpmin=10 / qpmax=51 / qpstep=4 / cplxblur=20.0 / qblur=0.5 / ip_ratio=1.40 / pb_ratio=1.30 / aq=1:1.00
Дата кодирования : UTC 2013-02-28 21:49:30
Дата пометки : UTC 2013-02-28 21:50:59
Аудио
Идентификатор : 2
Формат : AAC
Формат/Информация : Advanced Audio Codec
Профиль формата : LC
Идентификатор кодека : 40
Продолжительность : 21 м.
Вид битрейта : Переменный
Битрейт : 129 Кбит/сек
Максимальный битрейт : 155 Кбит/сек
Каналы : 2 канала
Расположение каналов : Front: L R
Частота : 48,0 КГц
Метод сжатия : С потерями
Размер потока : 20,0 Мбайт (6%)
Дата кодирования : UTC 2013-02-28 21:50:57
Дата пометки : UTC 2013-02-28 21:50:59
Общее
Полное имя : L:3.РаздачаПриключения Мишек ГаммиPriklyucheniya Gammi.s1-s6s6e19.Обряд.mp4
Формат : MPEG-4
Профиль формата : Base Media
Идентификатор кодека : isom
Размер файла : 333 Мбайт
Продолжительность : 21 м.
Режим общего битрейта : Переменный
Общий поток : 2133 Кбит/сек
Дата кодирования : UTC 2013-02-28 21:52:05
Дата пометки : UTC 2013-02-28 21:52:05
Видео
Идентификатор : 1
Формат : AVC
Формат/Информация : Advanced Video Codec
Профиль формата : High@L4.1
Параметр CABAC формата : Да
Параметр ReFrames формата : 3 кадра
Идентификатор кодека : avc1
Идентификатор кодека/Информация : Advanced Video Coding
Продолжительность : 21 м.
Битрейт : 2000 Кбит/сек
Максимальный битрейт : 4078 Кбит/сек
Ширина : 720 пикселей
Высота : 544 пикселя
Соотношение сторон : 4:3
Режим частоты кадров : Постоянный
Частота кадров : 25,000 кадров/сек
Цветовое пространство : YUV
Субдискретизация насыщенности : 4:2:0
Битовая глубина : 8 бит
Тип развёртки : Прогрессивная
Бит/(Пиксели*Кадры) : 0.204
Размер потока : 312 Мбайт (94%)
Библиотека кодирования : x264 core 65 r999kMod cc51047
Настройки программы : cabac=1 / ref=3 / deblock=1:0:0 / analyse=0x3:0x133 / me=umh / subme=9 / psy_rd=1.0:0.0 / mixed_ref=1 / me_range=16 / chroma_me=1 / trellis=1 / 8x8dct=1 / cqm=0 / deadzone=21,11 / chroma_qp_offset=-2 / threads=2 / thread_queue=2 / nr=0 / decimate=1 / mbaff=0 / bframes=3 / b_pyramid=1 / b_adapt=1 / b_bias=0 / direct=3 / wpredb=1 / keyint=250 / keyint_min=25 / scenecut=40(pre) / rc=2pass / bitrate=2000 / ratetol=1.0 / qcomp=0.60 / qpmin=10 / qpmax=51 / qpstep=4 / cplxblur=20.0 / qblur=0.5 / ip_ratio=1.40 / pb_ratio=1.30 / aq=1:1.00
Дата кодирования : UTC 2013-02-28 21:52:05
Дата пометки : UTC 2013-02-28 21:52:38
Аудио
Идентификатор : 2
Формат : AAC
Формат/Информация : Advanced Audio Codec
Профиль формата : LC
Идентификатор кодека : 40
Продолжительность : 21 м.
Вид битрейта : Переменный
Битрейт : 129 Кбит/сек
Максимальный битрейт : 166 Кбит/сек
Каналы : 2 канала
Расположение каналов : Front: L R
Частота : 48,0 КГц
Метод сжатия : С потерями
Размер потока : 20,1 Мбайт (6%)
Дата кодирования : UTC 2013-02-28 21:52:37
Дата пометки : UTC 2013-02-28 21:52:38
Общее
Полное имя : L:3.РаздачаПриключения Мишек ГаммиPriklyucheniya Gammi.s1-s6s6e2.Брат Толстун.mp4
Формат : MPEG-4
Профиль формата : Base Media
Идентификатор кодека : isom
Размер файла : 334 Мбайт
Продолжительность : 21 м.
Режим общего битрейта : Переменный
Общий поток : 2132 Кбит/сек
Дата кодирования : UTC 2013-02-27 07:56:49
Дата пометки : UTC 2013-02-27 07:56:49
Видео
Идентификатор : 1
Формат : AVC
Формат/Информация : Advanced Video Codec
Профиль формата : High@L4.1
Параметр CABAC формата : Да
Параметр ReFrames формата : 3 кадра
Идентификатор кодека : avc1
Идентификатор кодека/Информация : Advanced Video Coding
Продолжительность : 21 м.
Битрейт : 2000 Кбит/сек
Максимальный битрейт : 4387 Кбит/сек
Ширина : 720 пикселей
Высота : 544 пикселя
Соотношение сторон : 4:3
Режим частоты кадров : Постоянный
Частота кадров : 25,000 кадров/сек
Цветовое пространство : YUV
Субдискретизация насыщенности : 4:2:0
Битовая глубина : 8 бит
Тип развёртки : Прогрессивная
Бит/(Пиксели*Кадры) : 0.204
Размер потока : 313 Мбайт (94%)
Библиотека кодирования : x264 core 65 r999kMod cc51047
Настройки программы : cabac=1 / ref=3 / deblock=1:0:0 / analyse=0x3:0x133 / me=umh / subme=9 / psy_rd=1.0:0.0 / mixed_ref=1 / me_range=16 / chroma_me=1 / trellis=1 / 8x8dct=1 / cqm=0 / deadzone=21,11 / chroma_qp_offset=-2 / threads=2 / thread_queue=2 / nr=0 / decimate=1 / mbaff=0 / bframes=3 / b_pyramid=1 / b_adapt=1 / b_bias=0 / direct=3 / wpredb=1 / keyint=250 / keyint_min=25 / scenecut=40(pre) / rc=2pass / bitrate=2000 / ratetol=1.0 / qcomp=0.60 / qpmin=10 / qpmax=51 / qpstep=4 / cplxblur=20.0 / qblur=0.5 / ip_ratio=1.40 / pb_ratio=1.30 / aq=1:1.00
Дата кодирования : UTC 2013-02-27 07:56:49
Дата пометки : UTC 2013-02-27 07:59:16
Аудио
Идентификатор : 2
Формат : AAC
Формат/Информация : Advanced Audio Codec
Профиль формата : LC
Идентификатор кодека : 40
Продолжительность : 21 м.
Вид битрейта : Переменный
Битрейт : 128 Кбит/сек
Максимальный битрейт : 166 Кбит/сек
Каналы : 2 канала
Расположение каналов : Front: L R
Частота : 48,0 КГц
Метод сжатия : С потерями
Размер потока : 20,1 Мбайт (6%)
Дата кодирования : UTC 2013-02-27 07:59:15
Дата пометки : UTC 2013-02-27 07:59:16
Общее
Полное имя : L:3.РаздачаПриключения Мишек ГаммиPriklyucheniya Gammi.s1-s6s6e3.Вертушка Таксфорда.mp4
Формат : MPEG-4
Профиль формата : Base Media
Идентификатор кодека : isom
Размер файла : 332 Мбайт
Продолжительность : 21 м.
Режим общего битрейта : Переменный
Общий поток : 2132 Кбит/сек
Дата кодирования : UTC 2013-02-27 08:54:50
Дата пометки : UTC 2013-02-27 08:54:50
Видео
Идентификатор : 1
Формат : AVC
Формат/Информация : Advanced Video Codec
Профиль формата : High@L4.1
Параметр CABAC формата : Да
Параметр ReFrames формата : 3 кадра
Идентификатор кодека : avc1
Идентификатор кодека/Информация : Advanced Video Coding
Продолжительность : 21 м.
Битрейт : 2000 Кбит/сек
Максимальный битрейт : 4155 Кбит/сек
Ширина : 720 пикселей
Высота : 544 пикселя
Соотношение сторон : 4:3
Режим частоты кадров : Постоянный
Частота кадров : 25,000 кадров/сек
Цветовое пространство : YUV
Субдискретизация насыщенности : 4:2:0
Битовая глубина : 8 бит
Тип развёртки : Прогрессивная
Бит/(Пиксели*Кадры) : 0.204
Размер потока : 311 Мбайт (94%)
Библиотека кодирования : x264 core 65 r999kMod cc51047
Настройки программы : cabac=1 / ref=3 / deblock=1:0:0 / analyse=0x3:0x133 / me=umh / subme=9 / psy_rd=1.0:0.0 / mixed_ref=1 / me_range=16 / chroma_me=1 / trellis=1 / 8x8dct=1 / cqm=0 / deadzone=21,11 / chroma_qp_offset=-2 / threads=2 / thread_queue=2 / nr=0 / decimate=1 / mbaff=0 / bframes=3 / b_pyramid=1 / b_adapt=1 / b_bias=0 / direct=3 / wpredb=1 / keyint=250 / keyint_min=25 / scenecut=40(pre) / rc=2pass / bitrate=2000 / ratetol=1.0 / qcomp=0.60 / qpmin=10 / qpmax=51 / qpstep=4 / cplxblur=20.0 / qblur=0.5 / ip_ratio=1.40 / pb_ratio=1.30 / aq=1:1.00
Дата кодирования : UTC 2013-02-27 08:54:50
Дата пометки : UTC 2013-02-27 08:55:35
Аудио
Идентификатор : 2
Формат : AAC
Формат/Информация : Advanced Audio Codec
Профиль формата : LC
Идентификатор кодека : 40
Продолжительность : 21 м.
Вид битрейта : Переменный
Битрейт : 128 Кбит/сек
Максимальный битрейт : 144 Кбит/сек
Каналы : 2 канала
Расположение каналов : Front: L R
Частота : 48,0 КГц
Метод сжатия : С потерями
Размер потока : 19,9 Мбайт (6%)
Дата кодирования : UTC 2013-02-27 08:55:34
Дата пометки : UTC 2013-02-27 08:55:35
Общее
Полное имя : L:3.РаздачаПриключения Мишек ГаммиPriklyucheniya Gammi.s1-s6s6e4.Подлиза-завоеватель.mp4
Формат : MPEG-4
Профиль формата : Base Media
Идентификатор кодека : isom
Размер файла : 331 Мбайт
Продолжительность : 21 м.
Режим общего битрейта : Переменный
Общий поток : 2133 Кбит/сек
Дата кодирования : UTC 2013-02-27 08:43:11
Дата пометки : UTC 2013-02-27 08:43:11
Видео
Идентификатор : 1
Формат : AVC
Формат/Информация : Advanced Video Codec
Профиль формата : High@L4.1
Параметр CABAC формата : Да
Параметр ReFrames формата : 3 кадра
Идентификатор кодека : avc1
Идентификатор кодека/Информация : Advanced Video Coding
Продолжительность : 21 м.
Битрейт : 2000 Кбит/сек
Максимальный битрейт : 3908 Кбит/сек
Ширина : 720 пикселей
Высота : 544 пикселя
Соотношение сторон : 4:3
Режим частоты кадров : Постоянный
Частота кадров : 25,000 кадров/сек
Цветовое пространство : YUV
Субдискретизация насыщенности : 4:2:0
Битовая глубина : 8 бит
Тип развёртки : Прогрессивная
Бит/(Пиксели*Кадры) : 0.204
Размер потока : 311 Мбайт (94%)
Библиотека кодирования : x264 core 65 r999kMod cc51047
Настройки программы : cabac=1 / ref=3 / deblock=1:0:0 / analyse=0x3:0x133 / me=umh / subme=9 / psy_rd=1.0:0.0 / mixed_ref=1 / me_range=16 / chroma_me=1 / trellis=1 / 8x8dct=1 / cqm=0 / deadzone=21,11 / chroma_qp_offset=-2 / threads=2 / thread_queue=2 / nr=0 / decimate=1 / mbaff=0 / bframes=3 / b_pyramid=1 / b_adapt=1 / b_bias=0 / direct=3 / wpredb=1 / keyint=250 / keyint_min=25 / scenecut=40(pre) / rc=2pass / bitrate=2000 / ratetol=1.0 / qcomp=0.60 / qpmin=10 / qpmax=51 / qpstep=4 / cplxblur=20.0 / qblur=0.5 / ip_ratio=1.40 / pb_ratio=1.30 / aq=1:1.00
Дата кодирования : UTC 2013-02-27 08:43:11
Дата пометки : UTC 2013-02-27 08:46:42
Аудио
Идентификатор : 2
Формат : AAC
Формат/Информация : Advanced Audio Codec
Профиль формата : LC
Идентификатор кодека : 40
Продолжительность : 21 м.
Вид битрейта : Переменный
Битрейт : 129 Кбит/сек
Максимальный битрейт : 166 Кбит/сек
Каналы : 2 канала
Расположение каналов : Front: L R
Частота : 48,0 КГц
Метод сжатия : С потерями
Размер потока : 20,0 Мбайт (6%)
Дата кодирования : UTC 2013-02-27 08:46:37
Дата пометки : UTC 2013-02-27 08:46:42
-
[Profile] [PM]
Кто просматривает тему:

Forum Topic Author Size
Фильмы 2011 года 007: Казино Рояль / Casino Royale (Мартин Кэмпбелл / Martin Campbell) [2006, Германия, США, Великобритания, Чехия, боевик, триллер, приключения, BDRip] Dub [Полная версия / UnCut] painkiller 1.46 GB
Фильмы (HD Rips | 720p, 1080p) 007: Спектр / Spectre (Сэм Мендес) [2015 г., Боевик, триллер, приключения, BDRip 720p] DUB (Лицензия) + AVO (Чадов) + SUB BOSS 12.73 GB
Фильмы (HD DVD, Blu-ray и BDRemux) 007: СПЕКТР / Spectre (Сэм Мендес) [2015 г., боевик, триллер, приключения, Blu-Ray 1080p] Dub [Лицензия] BOSS 41.9 GB
Фильмы (HD DVD, Blu-ray и BDRemux) 007: СПЕКТР / Spectre (Сэм Мендес) [2015 г., боевик, триллер, приключения, Blu-Ray Remux 1080p] Dub [Лицензия] BOSS 32.5 GB
Фильмы 2015 года 007: СПЕКТР / Spectre (Сэм Мендес) [2015, боевик, триллер, приключения] HDRip | [DUB] [Лицензия] BOSS 1.47 GB
Фильмы 2010 года 127 Часов / 127 Hours (Дэнни Бойл / Danny Boyle) [2010, США, Великобритания, триллер, драма, приключения, биография, BDRip-AVC] Dub + 2x DVO (Кубик в кубе, OzzTV) + AVO (Сербин) + Original + Sub... TorrentFilm 3.79 GB
Фильмы 2010 года 127 Часов / 127 Hours (Дэнни Бойл / Danny Boyle) [2010, США, Триллер, биография, драма, приключения, BDRip] Dub + Original (Eng) + Subs (Rus, Eng) TorrentFilm 1.75 GB
Классика зарубежного кино 20000 лье под водой / 20000 Leagues Under the Sea (Ричард Флайшер / Richard Fleischer) [1954, США, Фантастика, фэнтези, драма, приключения, WEB-DLRip] MVO (Светла) Russian Mafia 1.46 GB
Display posts from previous:    

The time now is: Today 04:11

All times are GMT



You cannot post new topics in this forum
You cannot reply to topics in this forum
You cannot edit your posts in this forum
You cannot delete your posts in this forum
You cannot vote in polls in this forum
You cannot attach files in this forum
You cannot download files in this forum