Приключения малыша Гиппопо (Владимир Гончаров) [1974, Мультфильм, DVDRip]

 
Автор Сообщение

TorrentFilm ®

Пол:

Стаж: 1 год 11 месяцев

Сообщений: 7741



Награды: Нет

Торрент-статистика

Создавать темы 30-Мар-2015 00:01

[Цитировать]

Приключения малыша Гиппопо Страна: СССР (Киевнаучфильм) Жанр: МультфильмПродолжительность: 09.10 Год выпуска: 1974Русские субтитры: нетРежиссёр: Владимир Гончаров
Роли озвучивали: Людмила Козуб, Людмила Игнатенко, Наталья Ковязина, Геннадий Кислюк
Описание: Злой охотник похищает маму маленького гиппопотама, но ему на выручку приходит девочка, и они с помощью милиционера освобождают пленницу.
"- Ты кто?
- Я... малыш гиппопо...там.
- Почему же ты там, когда ты тут?
Ты - малыш гиппопотут."

Доп. информация: Исходный ДВД, из которого сделан рип, скачан из сети, но он был такой: http://torrentfilm.net/forum/viewtopic.php?t=3644054
Это всё, что удалось выжать из него, а именно - вернуть цвета, контрастность, чёткость.
Скриншоты под спойлером.

Скриншоты в процессе работы в VirtualDubMod



Все релизы на форуме: http://torrentfilm.net/forum/tracker.php?nm=Приключен...малыша%20Гиппопо
Качество: DVDRip
Формат: AVI
Видео: XVID, 720Х528, 4:3, 25.000 fps, 2 355 Kbps
Аудио: AC3, 48 KHz, 192 Kbps, 2 channels, русский
Субтитры: отсутствуют

Подробные технические данные

Format : AVIFormat/Info : Audio Video InterleaveFile size : 168 MiBDuration : 9mn 10sOverall bit rate : 2 556 KbpsWriting application : VirtualDubMod 1.5.10.1 Рус от Stvens Inc.™ www.stvens.amillo.net (build 2439/release)Writing library : VirtualDubMod build 2439/release
VideoID : 0Format : MPEG-4 VisualFormat profile : Advanced Simple@L5Format settings, BVOP : 1Format settings, QPel : NoFormat settings, GMC : No warppointsFormat settings, Matrix : Default (H.263)Codec ID : XVIDCodec ID/Hint : XviDDuration : 9mn 10sBit rate : 2 355 KbpsWidth : 720 pixelsHeight : 528 pixelsDisplay aspect ratio : 4:3Frame rate : 25.000 fpsColor space : YUVChroma subsampling : 4:2:0Bit depth : 8 bitsScan type : ProgressiveCompression mode : LossyBits/(Pixel*Frame) : 0.248Stream size : 154 MiB (92%)Writing library : XviD 64
AudioID : 1Format : AC-3Format/Info : Audio Coding 3Mode extension : CM (complete main)Format settings, Endianness : BigCodec ID : 2000Duration : 9mn 9sBit rate mode : ConstantBit rate : 192 KbpsChannel count : 2 channelsChannel positions : Front: L RSampling rate : 48.0 KHzBit depth : 16 bitsCompression mode : LossyStream size : 12.6 MiB (8%)Alignment : Split accross interleavesInterleave, duration : 40 ms (1.00 video frame)Interleave, preload duration : 500 ms

Скриншоты


С праздником Весны!
[Профиль] [ЛС]
Кто просматривает тему:

Форум Тема Автор Размер
Фильмы 2011 года 007: Казино Рояль / Casino Royale (Мартин Кэмпбелл / Martin Campbell) [2006, Германия, США, Великобритания, Чехия, боевик, триллер, приключения, BDRip] Dub [Полная версия / UnCut] painkiller 1.46 GB
Фильмы (HD Rips | 720p, 1080p) 007: Спектр / Spectre (Сэм Мендес) [2015 г., Боевик, триллер, приключения, BDRip 720p] DUB (Лицензия) + AVO (Чадов) + SUB BOSS 12.73 GB
Фильмы (HD DVD, Blu-ray и BDRemux) 007: СПЕКТР / Spectre (Сэм Мендес) [2015 г., боевик, триллер, приключения, Blu-Ray 1080p] Dub [Лицензия] BOSS 41.9 GB
Фильмы (HD DVD, Blu-ray и BDRemux) 007: СПЕКТР / Spectre (Сэм Мендес) [2015 г., боевик, триллер, приключения, Blu-Ray Remux 1080p] Dub [Лицензия] BOSS 32.5 GB
Фильмы 2015 года 007: СПЕКТР / Spectre (Сэм Мендес) [2015, боевик, триллер, приключения] HDRip | [DUB] [Лицензия] BOSS 1.47 GB
Фильмы 2010 года 127 Часов / 127 Hours (Дэнни Бойл / Danny Boyle) [2010, США, Великобритания, триллер, драма, приключения, биография, BDRip-AVC] Dub + 2x DVO (Кубик в кубе, OzzTV) + AVO (Сербин) + Original + Sub... TorrentFilm 3.79 GB
Фильмы 2010 года 127 Часов / 127 Hours (Дэнни Бойл / Danny Boyle) [2010, США, Триллер, биография, драма, приключения, BDRip] Dub + Original (Eng) + Subs (Rus, Eng) TorrentFilm 1.75 GB
Классика зарубежного кино 20000 лье под водой / 20000 Leagues Under the Sea (Ричард Флайшер / Richard Fleischer) [1954, США, Фантастика, фэнтези, драма, приключения, WEB-DLRip] MVO (Светла) Russian Mafia 1.46 GB
Показать сообщения:    

Текущее время: Сегодня 15:58

Часовой пояс: GMT



Вы не можете начинать темы
Вы не можете отвечать на сообщения
Вы не можете редактировать свои сообщения
Вы не можете удалять свои сообщения
Вы не можете голосовать в опросах
Вы не можете прикреплять файлы к сообщениям
Вы не можете скачивать файлы