Приключения малыша Гиппопо (Владимир Гончаров) [1974, Мультфильм, DVDRip]

 
Автор Сообщение

TorrentFilm ®

Пол:

Стаж: 2 года 6 месяцев

Сообщений: 7773



Награды: Нет

Торрент-статистика

Создавать темы 30-Мар-2015 00:01

[Цитировать]

Приключения малыша Гиппопо Страна: СССР (Киевнаучфильм) Жанр: МультфильмПродолжительность: 09.10 Год выпуска: 1974Русские субтитры: нетРежиссёр: Владимир Гончаров
Роли озвучивали: Людмила Козуб, Людмила Игнатенко, Наталья Ковязина, Геннадий Кислюк
Описание: Злой охотник похищает маму маленького гиппопотама, но ему на выручку приходит девочка, и они с помощью милиционера освобождают пленницу.
"- Ты кто?
- Я... малыш гиппопо...там.
- Почему же ты там, когда ты тут?
Ты - малыш гиппопотут."

Доп. информация: Исходный ДВД, из которого сделан рип, скачан из сети, но он был такой: http://torrentfilm.net/forum/viewtopic.php?t=3644054
Это всё, что удалось выжать из него, а именно - вернуть цвета, контрастность, чёткость.
Скриншоты под спойлером.

Скриншоты в процессе работы в VirtualDubMod



Все релизы на форуме: http://torrentfilm.net/forum/tracker.php?nm=Приключен...малыша%20Гиппопо
Качество: DVDRip
Формат: AVI
Видео: XVID, 720Х528, 4:3, 25.000 fps, 2 355 Kbps
Аудио: AC3, 48 KHz, 192 Kbps, 2 channels, русский
Субтитры: отсутствуют

Подробные технические данные

Format : AVIFormat/Info : Audio Video InterleaveFile size : 168 MiBDuration : 9mn 10sOverall bit rate : 2 556 KbpsWriting application : VirtualDubMod 1.5.10.1 Рус от Stvens Inc.™ www.stvens.amillo.net (build 2439/release)Writing library : VirtualDubMod build 2439/release
VideoID : 0Format : MPEG-4 VisualFormat profile : Advanced Simple@L5Format settings, BVOP : 1Format settings, QPel : NoFormat settings, GMC : No warppointsFormat settings, Matrix : Default (H.263)Codec ID : XVIDCodec ID/Hint : XviDDuration : 9mn 10sBit rate : 2 355 KbpsWidth : 720 pixelsHeight : 528 pixelsDisplay aspect ratio : 4:3Frame rate : 25.000 fpsColor space : YUVChroma subsampling : 4:2:0Bit depth : 8 bitsScan type : ProgressiveCompression mode : LossyBits/(Pixel*Frame) : 0.248Stream size : 154 MiB (92%)Writing library : XviD 64
AudioID : 1Format : AC-3Format/Info : Audio Coding 3Mode extension : CM (complete main)Format settings, Endianness : BigCodec ID : 2000Duration : 9mn 9sBit rate mode : ConstantBit rate : 192 KbpsChannel count : 2 channelsChannel positions : Front: L RSampling rate : 48.0 KHzBit depth : 16 bitsCompression mode : LossyStream size : 12.6 MiB (8%)Alignment : Split accross interleavesInterleave, duration : 40 ms (1.00 video frame)Interleave, preload duration : 500 ms

Скриншоты


С праздником Весны!
[Профиль] [ЛС]
Кто просматривает тему:

Форум Тема Автор Размер
Travel Travel Channel: Легенды старого замка / Castle Secrets & Legends [сезон 1 серии 1-5 из 5] (Рэми Вэбер) [2014 г., Документальный, приключения, образование, история, путешествия, HDTVRip-AVC 720p] skorpionN 8.21 GB
Travel Travel: Тайны замков / Mysteries at the Castle (Castle Secrets & Legends) [сезон 2 серии 1-13 из 13] (Jeremiah Crowell) [2015 г., Документальный, приключения, образование, история, путешествия... skorpionN 18.55 GB
3D Мультфильмы Астерикс: Земля Богов в 3Д / Astérix: Le domaine des dieux / Asterix: The Mansions of the Gods 3D (Л.Клиши, А.Астье / L.Clichy, A.Astier) [2014, Мультфильм, Приключения, Комедия, BDrip-AVC] Half... BOSS 4.12 GB
Зарубежное кино (CAMRip, Telesynch, SCR) Бен-Гур / Ben-Hur (Тимур Бекмамбетов) [2016, Драма, приключения, история, CAMRip] [DUB] Релиз с рекламой BOSS 1.46 GB
Зарубежные сериалы В пустыне смерти / Into the Badlands (Сезон 2 , Серия 1-10 из 10) (Дэвид Добкин) [2017 , Боевик, драма, приключения, экранизация , WEB-DLRip 1080p] [LostFilm , АМC , OmskBird , NewStudiо ,BaibaKo ,... Враг Нароода 31.69 GB
3D Мультфильмы Гадкий я в 3Д / Despicable Me 3D (Пьер Коффен, Крис Рено / Pierre Coffin, Chris Renaud) [2010, Комедия, приключения, BDremux, 1080p] BD3D BOSS 28.18 GB
Зарубежные сериалы Железный кулак / Marvel's Iron Fist (Сезон 1, Серия 1-13 из 13) (Джон Дал, Фэррен Блэкберн, Ута ) [2017 , Фантастика, боевик, криминал, приключения , WEB-DLRip 1080p] [LostFilm , NewStudiо... Враг Нароода 40.04 GB
Отечественные cериалы Казаки / Серии 1-16 из 16 (Станислав Мареев) [2016 г., Детектив, приключения, HDTVRip] Pensioner 8.58 GB
Показать сообщения:    

Текущее время: Сегодня 17:39

Часовой пояс: GMT



Вы не можете начинать темы
Вы не можете отвечать на сообщения
Вы не можете редактировать свои сообщения
Вы не можете удалять свои сообщения
Вы не можете голосовать в опросах
Вы не можете прикреплять файлы к сообщениям
Вы не можете скачивать файлы