Приключения маленьких итальянцев / Amori elementari (Серджо Бассо / Sergio Basso) [2014, Россия, Италия, WEBRip] Dub

 
Автор Сообщение

TorrentFilm ®

Пол:

Стаж: 2 года 6 месяцев

Сообщений: 7773



Награды: Нет

Торрент-статистика

Создавать темы 21-Дек-2014 02:00

[Цитировать]

Приключения маленьких итальянцев / Amori elementari
Страна: Россия, Италия / Centro Sperimentale di Cinematografia, Rai Cinema, Зори Фильм
Жанр: комедия, семейный
Год выпуска: 2014
Продолжительность: 01:29:03
Перевод: Оригинал (русский) + Профессиональный (дублированный)
Cубтитры: нет
Режиссер: Серджо Бассо / Sergio Basso
В ролях: Андрей Чернышов, Ольга Погодина, Кристиана Капотонди, Александр Ковтунец, Максим Бычков, Анна Потебня, Андреа Питторино, Лаура Гайя Пьячентилле, Ракеле Кремона, Бонни Маппиматтель
Описание: Неразлучные друзья из маленько итальянского альпийского городка занимаются фигурным катанием и хоккеем. Однажды по вине ребят пропадает ценная шайба, которая принадлежала их тренеру, бывшему известному российскому спортсмену. Они должны срочно, пока никто не заметил, вернуть ее! Это обстоятельство явилось причиной срочного отлета в Москву всех тех, кто случайно или специально был посвящен в эту тайну.
В Россию прибыли трое итальянских детей, один индус и двое русских ребят, живущих в Италии. Но в Москве одна из итальянских девочек решила сбежать, что усложнило и так непростые соревнования за шайбу в незнакомой стране…
Сэмпл: http://multi-up.com/1016230
Качество видео: WEBRip
Формат видео: AVI
Видео: 720x304 (2.35:1), 25.000 fps, XviD 1.2.1 ~1804 kbps avg, 0.330 bit/pixel
Аудио: 48.0 kHz, AC-3, 2 ch, ~384 kbps

MediaInfo

General
Complete name : F:\Download\Melk1e.Itl1anc1.avi
Format : AVI
Format/Info : Audio Video Interleave
File size : 1.37 GiB
Duration : 1h 29mn
Overall bit rate : 2 198 Kbps
Writing application : VirtualDubMod 1.5.10.2 (build 2540/release)
Writing library : VirtualDubMod build 2540/release
Video
ID : 0
Format : MPEG-4 Visual
Format profile : Advanced Simple@L5
Format settings, BVOP : 2
Format settings, QPel : No
Format settings, GMC : No warppoints
Format settings, Matrix : Default (MPEG)
Codec ID : XVID
Codec ID/Hint : XviD
Duration : 1h 29mn
Bit rate : 1 804 Kbps
Width : 720 pixels
Height : 304 pixels
Display aspect ratio : 2.35:1
Frame rate : 25.000 fps
Color space : YUV
Chroma subsampling : 4:2:0
Bit depth : 8 bits
Scan type : Progressive
Compression mode : Lossy
Bits/(Pixel*Frame) : 0.330
Stream size : 1.12 GiB (82%)
Writing library : XviD 1.2.1 (UTC 2008-12-04)
Audio
ID : 1
Format : AC-3
Format/Info : Audio Coding 3
Mode extension : CM (complete main)
Format settings, Endianness : Big
Codec ID : 2000
Duration : 1h 29mn
Bit rate mode : Constant
Bit rate : 384 Kbps
Channel(s) : 2 channels
Channel positions : Front: L R
Sampling rate : 48.0 KHz
Bit depth : 16 bits
Compression mode : Lossy
Stream size : 245 MiB (17%)
Alignment : Split accross interleaves
Interleave, duration : 40 ms (1.00 video frame)
Interleave, preload duration : 500 ms

Скриншот c названием фильма

Скриншоты

[Профиль] [ЛС]
Кто просматривает тему:

Форум Тема Автор Размер
Travel Travel Channel: Легенды старого замка / Castle Secrets & Legends [сезон 1 серии 1-5 из 5] (Рэми Вэбер) [2014 г., Документальный, приключения, образование, история, путешествия, HDTVRip-AVC 720p] skorpionN 8.21 GB
Travel Travel: Тайны замков / Mysteries at the Castle (Castle Secrets & Legends) [сезон 2 серии 1-13 из 13] (Jeremiah Crowell) [2015 г., Документальный, приключения, образование, история, путешествия... skorpionN 18.55 GB
Фильмы 2013 года Альпинисты (Аршо Арутюнян) [2013 г., Приключения, боевик, HDTVRip] Шкипер 745 MB
3D Мультфильмы Астерикс: Земля Богов в 3Д / Astérix: Le domaine des dieux / Asterix: The Mansions of the Gods 3D (Л.Клиши, А.Астье / L.Clichy, A.Astier) [2014, Мультфильм, Приключения, Комедия, BDrip-AVC] Half... BOSS 4.12 GB
Зарубежное кино (CAMRip, Telesynch, SCR) Бен-Гур / Ben-Hur (Тимур Бекмамбетов) [2016, Драма, приключения, история, CAMRip] [DUB] Релиз с рекламой BOSS 1.46 GB
Зарубежные сериалы В пустыне смерти / Into the Badlands (Сезон 2 , Серия 1-10 из 10) (Дэвид Добкин) [2017 , Боевик, драма, приключения, экранизация , WEB-DLRip 1080p] [LostFilm , АМC , OmskBird , NewStudiо ,BaibaKo ,... Враг Нароода 31.69 GB
3D Мультфильмы Гадкий я в 3Д / Despicable Me 3D (Пьер Коффен, Крис Рено / Pierre Coffin, Chris Renaud) [2010, Комедия, приключения, BDremux, 1080p] BD3D BOSS 28.18 GB
Зарубежные сериалы Железный кулак / Marvel's Iron Fist (Сезон 1, Серия 1-13 из 13) (Джон Дал, Фэррен Блэкберн, Ута ) [2017 , Фантастика, боевик, криминал, приключения , WEB-DLRip 1080p] [LostFilm , NewStudiо... Враг Нароода 40.04 GB
Показать сообщения:    

Текущее время: Сегодня 10:48

Часовой пояс: GMT



Вы не можете начинать темы
Вы не можете отвечать на сообщения
Вы не можете редактировать свои сообщения
Вы не можете удалять свои сообщения
Вы не можете голосовать в опросах
Вы не можете прикреплять файлы к сообщениям
Вы не можете скачивать файлы