Приключения китайчат (Мария Бендерская) [1928, Приключения, анимация, немое кино, DVDRip] Rus Sub

 
Автор Сообщение

TorrentFilm ®

Пол:

Стаж: 2 года

Сообщений: 7741



Награды: Нет

Торрент-статистика

Создавать темы 25-Апр-2015 00:04

[Цитировать]

Приключения китайчат
Страна: СССР
Жанр: Приключения, анимация, немое кино
Продолжительность: 00:23:38
Год выпуска: 1928
Перевод: Не требуется
Русские субтитры: есть

Режиссёр: Мария Бендерская
Описание: Приключения китайчат, которые нигде не находят счастья, кроме Советского Союза, где их- сердечно встречают пионеры.
Доп. информация: Релиз: , ukkond
Благодарность за постер принадлежит: lidakalju (кинозал.тв)
В раздаче присутствуют английские, русские и китайские субтитры.

Семпл: https://yadi.sk/i/bbaDIi0RgCeRi
Качество: DVDRip
Формат: AVI
Видео: 640x480 (1.33:1), 24 fps, XviD build 50 ~1582 kbps avg, 0.21 bit/pixel
Аудио: 44.100 kHz, MPEG Layer 3, 2 ch, ~128.00 kbps avg
Субтитры:

скрытый текст

Русские:
1
00:00:00,000 --> 00:00:01,900
Приключения КИТАЙСКИХ ДЕТЕЙ
2
00:00:02,000 --> 00:00:06,900
Сценарий: В. С. Levington
3
00:00:07,000 --> 00:00:12,900
Анимация: М. В. Бендерская и SA Бендерский
4
00:00:15,250 --> 00:00:16,325
ЧАСТЬ ПЕРВАЯ
5
00:00:17,000 --> 00:00:23,900
Это было в Китае, в былые годы, в старом городе Шанхае.
6
00:00:47,500 --> 00:00:52,400
Бедных кули имени Чи-Хай, осуществляется тяжелые ящики с Chai.
7
00:01:19,000 --> 00:01:25,400
Двое детей был этот чай с поставщиком, сына, Lipup, и дочь, Likaya.
8
00:02:16,500 --> 00:02:22,150
Рядом находилась богатый человек и # 39; ы домой, где жил англичанин по имени Том.
9
00:02:22,250 --> 00:02:27,400
Богатый человек никогда не уделял много внимания, к тому, что дети должны были съесть.
10
00:02:27,500 --> 00:02:32,400
Китайцы работал, пока они не были синими, а Том и # 39; ы живот рос и рос.
11
00:02:47,750 --> 00:02:51,650
Таким образом, в печи они ведомого и гудел, как их хозяин и # 39; ы одежда застонал.
12
00:02:52,000 --> 00:02:56,400
Они посадили риса по крупицам, и Том & # 39; кошелек сек заполнено снова.
13
00:05:15,750 --> 00:05:20,900
Наши две Китайцы, Том и # 39; книжек, превратился в маленьких поваров.
14
00:05:40,500 --> 00:05:46,150
Там они узнали, в один миг, что, будучи рабом, не так приятно.
15
00:07:03,250 --> 00:07:08,650
Мои ноги болят, плакали Likaya. Ее слезы капали вниз, в пирог.
16
00:07:24,500 --> 00:07:29,400
Ланч и пить вино, гости ждали сладкие пирога.
17
00:07:56,500 --> 00:08:01,650
Том взял один укус сладкое, то вскочил в гневе со своего сиденья.

Подробные технические данные

Format : AVIFormat/Info : Audio Video InterleaveFile size : 291 MiBDuration : 23mn 38sOverall bit rate : 1 720 Kbps
VideoID : 0Format : MPEG-4 VisualFormat profile : Advanced Simple@L5Format settings, BVOP : YesFormat settings, QPel : NoFormat settings, GMC : No warppointsFormat settings, Matrix : Default (H.263)Codec ID : XVIDCodec ID/Hint : XviDDuration : 23mn 38sBit rate : 1 583 KbpsWidth : 640 pixelsHeight : 480 pixelsDisplay aspect ratio : 4:3Frame rate : 24.000 fpsColor space : YUVChroma subsampling : 4:2:0Bit depth : 8 bitsScan type : ProgressiveBits/(Pixel*Frame) : 0.215Stream size : 268 MiB (92%)Writing library : XviD 1.2.1 (UTC 2008-12-04)
AudioID : 1Format : MPEG AudioFormat version : Version 1Format profile : Layer 3Codec ID : 55Codec ID/Hint : MP3Duration : 23mn 37sBit rate mode : ConstantBit rate : 128 KbpsChannel(s) : 2 channelsSampling rate : 44.1 KHzStream size : 21.6 MiB (7%)Alignment : Aligned on interleavesInterleave, duration : 42 ms (1.00 video frame)Writing library : LAMEЄЄ
[Профиль] [ЛС]
Кто просматривает тему:

Форум Тема Автор Размер
Фильмы 2011 года 007: Казино Рояль / Casino Royale (Мартин Кэмпбелл / Martin Campbell) [2006, Германия, США, Великобритания, Чехия, боевик, триллер, приключения, BDRip] Dub [Полная версия / UnCut] painkiller 1.46 GB
Фильмы (HD Rips | 720p, 1080p) 007: Спектр / Spectre (Сэм Мендес) [2015 г., Боевик, триллер, приключения, BDRip 720p] DUB (Лицензия) + AVO (Чадов) + SUB BOSS 12.73 GB
Фильмы (HD DVD, Blu-ray и BDRemux) 007: СПЕКТР / Spectre (Сэм Мендес) [2015 г., боевик, триллер, приключения, Blu-Ray 1080p] Dub [Лицензия] BOSS 41.9 GB
Фильмы (HD DVD, Blu-ray и BDRemux) 007: СПЕКТР / Spectre (Сэм Мендес) [2015 г., боевик, триллер, приключения, Blu-Ray Remux 1080p] Dub [Лицензия] BOSS 32.5 GB
Фильмы 2015 года 007: СПЕКТР / Spectre (Сэм Мендес) [2015, боевик, триллер, приключения] HDRip | [DUB] [Лицензия] BOSS 1.47 GB
Фильмы 2010 года 127 Часов / 127 Hours (Дэнни Бойл / Danny Boyle) [2010, США, Великобритания, триллер, драма, приключения, биография, BDRip-AVC] Dub + 2x DVO (Кубик в кубе, OzzTV) + AVO (Сербин) + Original + Sub... TorrentFilm 3.79 GB
Фильмы 2010 года 127 Часов / 127 Hours (Дэнни Бойл / Danny Boyle) [2010, США, Триллер, биография, драма, приключения, BDRip] Dub + Original (Eng) + Subs (Rus, Eng) TorrentFilm 1.75 GB
Классика зарубежного кино 20000 лье под водой / 20000 Leagues Under the Sea (Ричард Флайшер / Richard Fleischer) [1954, США, Фантастика, фэнтези, драма, приключения, WEB-DLRip] MVO (Светла) Russian Mafia 1.46 GB
Показать сообщения:    

Текущее время: Сегодня 20:46

Часовой пояс: GMT



Вы не можете начинать темы
Вы не можете отвечать на сообщения
Вы не можете редактировать свои сообщения
Вы не можете удалять свои сообщения
Вы не можете голосовать в опросах
Вы не можете прикреплять файлы к сообщениям
Вы не можете скачивать файлы