Приключения домовёнка Кузи (Дом для Кузьки, Приключения домовёнка, Сказка для Наташи, Возвращение домовёнка) (Аида Зябликова) [1984-1987 г.г., Мультфильм, DVB-AVC]

 
Автор Сообщение

painkiller ®

Стаж: 2 года 3 месяца

Сообщений: 582



Награды: Нет

Торрент-статистика

Создавать темы 27-Авг-2014 15:28

[Цитировать]

26 сент. 2012, 14:14 Нашла в сети единый файл и порезала его на серии корректно.Скачавшим раздачу ранее ─ приношу извинения за мелкий брак на титрах 4-ой серии
и предлагаю перекачать эту серию
(В 1-3 сериях брака не было, но и они сменились.)
-
Приключения домовёнка Кузи1. Дом для Кузьки
2. Приключения домовёнка
3. Сказка для Наташи
4. Возвращение домовёнка

Страна: СССР
Жанр: Мультфильм
Продолжительность: 0:53:42 (0:17:50 + 0:17:05 + 0:09:52 + 0:09:35)
Год выпуска: 1984, 1985, 1986, 1987
Выпущено: «ЭКРАН»
Режиссёр: Аида Зябликова
Русские субтитры: нетОписание:1. «Дом для Кузьки» (1984 г.)
«Дом для Кузьки» — первый мультфильм по очерёдности появления и второй мультфильм по сюжету из серии о домовёнке Кузе (по мотивам сказки Т. Александровой "Кузька в новой квартире").
В этой серии девочка Наташа знакомится с домовёнком Кузькой, которому пришлось переселиться к ней в квартиру. Старый дом Кузьмы снесли, и ему с другом Нафаней пришлось искать новое жилище. Домовой учит Наташу жить правильно, по-домовитому. А Наташа помогает Кузьке приспосабливаться к современной жизни. Наташа и домовёнок становятся настоящими друзьями.
В конце мультфильма звучит песня на стихи Валентина Берестова.
2. «Приключения домовёнка» (1985 г.)
В этой серии мы узнаём, как жил домовёнок до того, как попал к Наташе. Как Кузьму похитила Баба-Яга, надеясь на счастливую жизнь с хозяйственным домовым, как он попал в пень к Лешим, а потом стал "первым гнездовым"...
3. «Сказка для Наташи» (1986 г.)
Домовёнок сердится на Наташу, считая её бесхозяйственной, а в это время Баба-Яга вынашивает план похищения Кузьки. Она приходит домой к девочке под видом "Кузенькиной бабушки" и хитростью выкрадывает Кузьму.
4. «Возвращение домовёнка» (1987 г.)
Ворона решает спасти домовёнка и отправляется за ним в лес к Бабе-Яге. А та решает накормить Кузьку отворотным зельем, чтобы он на веки вечные остался с ней. Кузьма совершает побег, в результате которого жизнь всех главных героев изменяется к лучшему: ворона понимает, что счастье – это "когда у тебя все дома", Наташа снова обретает любимого друга, а Баба-Яга встречает нового домового, ещё более талантливого, чем Кузьма...

Цитаты


— Ой, бяда-бяда! Огорчение!
— Спасибо этому дому, пойду к другому.
— Нафа-аня! Волшебный сундучок украли! Со сказками!
— Заходи, гостем будешь.
— Это я не ем, я не козёл.
— Я — птица вольная! Куда хочу — туда лечу!
— Счастье — это когда все дома!
— Мусор вынесла? Умница, дочка!
— Ой, прямо дяденьке на шляпу… ага.
— Ну и что! Отряхнулся — и пошёл себе дальше!
— Кузенька! Вернись, яхонтовый мой!
— Ой, дедушка, птицы летят!..
— Это хорошо, это порядок.
— Смотри, и домовёнок летит!..
— А вот это непорядок.
— Говорят, вам счастье привалило? (ворона)
— Бессовестно врут! (кот)
— Бабе Яге счастье привалило!
— Завела дармоеда!
— Хочется чего-то, сам не знаю чего…
— Ремняу-мяу!
— Я чего сказал? Хочу ватрушек! А ты чего напекла?! Вот ешь теперь сама!
— Хлеб чёрный… И фунта не будет…
— Эй, ворона, весна скоро?
— Опомнился! Май на носу!
— Кем ты был? Последний домовой, а стал первый гнездовой!
— Ел недосыта, спал без просыпа… Недосыпал, в общем, я!
— Я не жадный, я домовитый.
— Дедушка, чего он дразнится?
— Я не могу быть понарошку, я девочка!
— А я скажу: «Не пойдёшь домой — поймаю и съем!»
— А он скажет: «Подавишься».
— Хочется чего-то, сам не знаю чего. Половички, что ли, снежком почистить?

Режиссёр и команда

Режиссёр Аида Зябликова
сценаристы: Валентин Берестов (1), Марина Вишневецкая (2, 3, 4)
художник-постановщик Геннадий Смолянов
xудожники: 2) О. Усачева; 3) А. Крюков, Э. Прохиницкая, Григорий Большаков
аниматоры: 1) Ольга Анашкина, Владимир Кадухин, Алла Соловьева; 2) Людмила Африна, Ольга Анашкина; 3) Владимир Кадухин, Алла Соловьева; 4) Владимир Кадухин, Алла Гришко
куклы и декорации:
1) Виктор Слетков, Анатолий Гнединский, Александра Мулюкина, Валерий Петров, Маргарита Богатская, Татьяна Моргунова, Юрий Одинцов, Елена Покровская;
2) Анатолий Кузнецов, Юрий Одинцов, Валерий Петров, Александра Мулюкина, Маргарита Богатская, Виктор Слетков, Анатолий Гнединский, Елена Покровская, Татьяна Моргунова;
3) Е. Дымова, Александра Мулюкина, Нина Пантелеева, Анатолий Кузнецов, Юрий Одинцов, Елена Покровская, Геннадий Богачев, Виктор Слетков
операторы: Леонард Кольвинковский (1, 2, 3), Константин Инешин (2, 4)
директор Е. Бобровская
композиторы: Сергей Томин (1), Михаил Меерович (2, 3, 4)
звукорежиссёр Сергей Кель (2)
редактор Алиса Феодориди
монтажёр Татьяна Моргунова
роли озвучивали: Георгий Вицин (Кузька), Татьяна Пельтцер (Баба Яга), Григорий Большаков, Анатолий Кузнецов, Светлана Травкина, Феликс Иванов.
Качество: DVB
Формат: ts (Transport Stream)
Видео: 720x576, 25 fps, H264 - MPEG-4 AVC (part 10), 2426 kbps
Аудио: 48000 Гц, MPEG Audio layer 1/2/3 (mpga), Stereo, 192 kbps
Субтитры: отсутствуют

Подробные технические данные1

ОбщееИдентификатор : 1 (0x1)Полное имя : D:\Prikl'ucheniya_domovenka_Kuzi_(1-4)\1._Dom_dl'a_Kuz'ki.tsФормат : MPEG-TSРазмер файла : 352 МбайтПродолжительность : 17 м.Общий поток : 2756 Кбит/сек
ВидеоИдентификатор : 4113 (0x1011)Идентификатор меню : 1 (0x1)Формат : AVCФормат/Информация : Advanced Video CodecПрофиль формата : Main@L3.0Параметр CABAC формата : ДаПараметр ReFrames формата : 4 кадраПараметр GOP формата : M=4, N=24Идентификатор кодека : 27Продолжительность : 17 м.Вид битрейта : ПеременныйБитрейт : 2426 Кбит/секМаксимальный битрейт : 40,0 Мбит/секШирина : 720 пикселейВысота : 576 пикселейСоотношение сторон : 4:3Частота кадров : 25,000 кадров/секСтандарт вещания : ComponentЦветовое пространство : YUVСубдискретизация насыщенности : 4:2:0Битовая глубина : 8 битТип развёртки : ЧересстрочнаяПорядок развёртки : Верхнее поле первоеБит/(Пиксели*Кадры) : 0.234Размер потока : 310 Мбайт (88%)Основные цвета : BT.470-6 System B, BT.470-6 System G, BT.601-6 625, BT.1358 625, BT.1700 625 PAL, BT.1700 625 SECAMХарактеристики трансфера : BT.470-6 System B, BT.470-6 System GКоэффициенты матрицы : BT.470-6 System B, BT.470-6 System G, BT.601-6 625, BT.1358 625, BT.1700 625 PAL, BT.1700 625 SECAM, IEC 61966-2-4 601
АудиоИдентификатор : 4352 (0x1100)Идентификатор меню : 1 (0x1)Формат : MPEG AudioВерсия формата : Version 1Профиль формата : Layer 2Идентификатор кодека : 3Продолжительность : 17 м.Вид битрейта : ПостоянныйБитрейт : 192 Кбит/секКаналы : 2 каналаЧастота : 48,0 КГцМетод сжатия : С потерямиРазмер потока : 24,5 Мбайт (7%)Язык : Russian

2

ОбщееИдентификатор : 1 (0x1)Полное имя : D:\Prikl'ucheniya_domovenka_Kuzi_(1-4)\2._Prikl'ucheniya_domovenka.tsФормат : MPEG-TSРазмер файла : 337 МбайтПродолжительность : 17 м.Общий поток : 2758 Кбит/сек
ВидеоИдентификатор : 4113 (0x1011)Идентификатор меню : 1 (0x1)Формат : AVCФормат/Информация : Advanced Video CodecПрофиль формата : Main@L3.0Параметр CABAC формата : ДаПараметр ReFrames формата : 4 кадраПараметр GOP формата : M=4, N=24Идентификатор кодека : 27Продолжительность : 17 м.Вид битрейта : ПеременныйБитрейт : 2427 Кбит/секМаксимальный битрейт : 40,0 Мбит/секШирина : 720 пикселейВысота : 576 пикселейСоотношение сторон : 4:3Частота кадров : 25,000 кадров/секСтандарт вещания : ComponentЦветовое пространство : YUVСубдискретизация насыщенности : 4:2:0Битовая глубина : 8 битТип развёртки : ЧересстрочнаяПорядок развёртки : Верхнее поле первоеБит/(Пиксели*Кадры) : 0.234Размер потока : 297 Мбайт (88%)Основные цвета : BT.470-6 System B, BT.470-6 System G, BT.601-6 625, BT.1358 625, BT.1700 625 PAL, BT.1700 625 SECAMХарактеристики трансфера : BT.470-6 System B, BT.470-6 System GКоэффициенты матрицы : BT.470-6 System B, BT.470-6 System G, BT.601-6 625, BT.1358 625, BT.1700 625 PAL, BT.1700 625 SECAM, IEC 61966-2-4 601
АудиоИдентификатор : 4352 (0x1100)Идентификатор меню : 1 (0x1)Формат : MPEG AudioВерсия формата : Version 1Профиль формата : Layer 2Идентификатор кодека : 3Продолжительность : 17 м.Вид битрейта : ПостоянныйБитрейт : 192 Кбит/секКаналы : 2 каналаЧастота : 48,0 КГцМетод сжатия : С потерямиЗадержка видео : -40 мс.Размер потока : 23,5 Мбайт (7%)Язык : Russian

3

ОбщееИдентификатор : 1 (0x1)Полное имя : D:\Prikl'ucheniya_domovenka_Kuzi_(1-4)\3._Skazka_dl'a_Natashi.tsФормат : MPEG-TSРазмер файла : 195 МбайтПродолжительность : 9 м. 52 с.Общий поток : 2756 Кбит/сек
ВидеоИдентификатор : 4113 (0x1011)Идентификатор меню : 1 (0x1)Формат : AVCФормат/Информация : Advanced Video CodecПрофиль формата : Main@L3.0Параметр CABAC формата : ДаПараметр ReFrames формата : 4 кадраПараметр GOP формата : M=4, N=24Идентификатор кодека : 27Продолжительность : 9 м. 52 с.Вид битрейта : ПеременныйБитрейт : 2426 Кбит/секМаксимальный битрейт : 40,0 Мбит/секШирина : 720 пикселейВысота : 576 пикселейСоотношение сторон : 4:3Частота кадров : 25,000 кадров/секСтандарт вещания : ComponentЦветовое пространство : YUVСубдискретизация насыщенности : 4:2:0Битовая глубина : 8 битТип развёртки : ЧересстрочнаяПорядок развёртки : Верхнее поле первоеБит/(Пиксели*Кадры) : 0.234Размер потока : 171 Мбайт (88%)Основные цвета : BT.470-6 System B, BT.470-6 System G, BT.601-6 625, BT.1358 625, BT.1700 625 PAL, BT.1700 625 SECAMХарактеристики трансфера : BT.470-6 System B, BT.470-6 System GКоэффициенты матрицы : BT.470-6 System B, BT.470-6 System G, BT.601-6 625, BT.1358 625, BT.1700 625 PAL, BT.1700 625 SECAM, IEC 61966-2-4 601
АудиоИдентификатор : 4352 (0x1100)Идентификатор меню : 1 (0x1)Формат : MPEG AudioВерсия формата : Version 1Профиль формата : Layer 2Идентификатор кодека : 3Продолжительность : 9 м. 52 с.Вид битрейта : ПостоянныйБитрейт : 192 Кбит/секКаналы : 2 каналаЧастота : 48,0 КГцМетод сжатия : С потерямиРазмер потока : 13,6 Мбайт (7%)Язык : Russian

4

ОбщееИдентификатор : 1 (0x1)Полное имя : D:\Prikl'ucheniya_domovenka_Kuzi_(1-4)\4._Vozvrashchenie_domovenka.tsФормат : MPEG-TSРазмер файла : 189 МбайтПродолжительность : 9 м. 35 с.Общий поток : 2756 Кбит/сек
ВидеоИдентификатор : 4113 (0x1011)Идентификатор меню : 1 (0x1)Формат : AVCФормат/Информация : Advanced Video CodecПрофиль формата : Main@L3.0Параметр CABAC формата : ДаПараметр ReFrames формата : 4 кадраПараметр GOP формата : M=4, N=24Идентификатор кодека : 27Продолжительность : 9 м. 35 с.Вид битрейта : ПеременныйБитрейт : 2426 Кбит/секМаксимальный битрейт : 40,0 Мбит/секШирина : 720 пикселейВысота : 576 пикселейСоотношение сторон : 4:3Частота кадров : 25,000 кадров/секСтандарт вещания : ComponentЦветовое пространство : YUVСубдискретизация насыщенности : 4:2:0Битовая глубина : 8 битТип развёртки : ЧересстрочнаяПорядок развёртки : Верхнее поле первоеБит/(Пиксели*Кадры) : 0.234Размер потока : 166 Мбайт (88%)Основные цвета : BT.470-6 System B, BT.470-6 System G, BT.601-6 625, BT.1358 625, BT.1700 625 PAL, BT.1700 625 SECAMХарактеристики трансфера : BT.470-6 System B, BT.470-6 System GКоэффициенты матрицы : BT.470-6 System B, BT.470-6 System G, BT.601-6 625, BT.1358 625, BT.1700 625 PAL, BT.1700 625 SECAM, IEC 61966-2-4 601
АудиоИдентификатор : 4352 (0x1100)Идентификатор меню : 1 (0x1)Формат : MPEG AudioВерсия формата : Version 1Профиль формата : Layer 2Идентификатор кодека : 3Продолжительность : 9 м. 35 с.Вид битрейта : ПостоянныйБитрейт : 192 Кбит/секКаналы : 2 каналаЧастота : 48,0 КГцМетод сжатия : С потерямиРазмер потока : 13,2 Мбайт (7%)Язык : Russian

Скриншоты1. "Дом для Кузьки"

2. "Приключения домовёнка"

3. "Сказка для Наташи"

4. "Возвращение домовёнка"

-
[Профиль] [ЛС]
Кто просматривает тему:

Форум Тема Автор Размер
Фильмы 2011 года 007: Казино Рояль / Casino Royale (Мартин Кэмпбелл / Martin Campbell) [2006, Германия, США, Великобритания, Чехия, боевик, триллер, приключения, BDRip] Dub [Полная версия / UnCut] painkiller 1.46 GB
Фильмы (HD Rips | 720p, 1080p) 007: Спектр / Spectre (Сэм Мендес) [2015 г., Боевик, триллер, приключения, BDRip 720p] DUB (Лицензия) + AVO (Чадов) + SUB BOSS 12.73 GB
Фильмы (HD DVD, Blu-ray и BDRemux) 007: СПЕКТР / Spectre (Сэм Мендес) [2015 г., боевик, триллер, приключения, Blu-Ray 1080p] Dub [Лицензия] BOSS 41.9 GB
Фильмы (HD DVD, Blu-ray и BDRemux) 007: СПЕКТР / Spectre (Сэм Мендес) [2015 г., боевик, триллер, приключения, Blu-Ray Remux 1080p] Dub [Лицензия] BOSS 32.5 GB
Фильмы 2015 года 007: СПЕКТР / Spectre (Сэм Мендес) [2015, боевик, триллер, приключения] HDRip | [DUB] [Лицензия] BOSS 1.47 GB
Фильмы 2010 года 127 Часов / 127 Hours (Дэнни Бойл / Danny Boyle) [2010, США, Великобритания, триллер, драма, приключения, биография, BDRip-AVC] Dub + 2x DVO (Кубик в кубе, OzzTV) + AVO (Сербин) + Original + Sub... TorrentFilm 3.79 GB
Фильмы 2010 года 127 Часов / 127 Hours (Дэнни Бойл / Danny Boyle) [2010, США, Триллер, биография, драма, приключения, BDRip] Dub + Original (Eng) + Subs (Rus, Eng) TorrentFilm 1.75 GB
Классика зарубежного кино 20000 лье под водой / 20000 Leagues Under the Sea (Ричард Флайшер / Richard Fleischer) [1954, США, Фантастика, фэнтези, драма, приключения, WEB-DLRip] MVO (Светла) Russian Mafia 1.46 GB
Показать сообщения:    

Текущее время: Сегодня 00:21

Часовой пояс: GMT



Вы не можете начинать темы
Вы не можете отвечать на сообщения
Вы не можете редактировать свои сообщения
Вы не можете удалять свои сообщения
Вы не можете голосовать в опросах
Вы не можете прикреплять файлы к сообщениям
Вы не можете скачивать файлы