Приключения викингов / Viking Quest (Тодор Чапканов) [2014, Канада, Болгария, фэнтези, боевик, HDRip]

 
Автор Сообщение

AleksSin ®

Пол:

Стаж: 6 лет 6 месяцев

Сообщений: 222



Награды: 4 (Подробнее)

Mega Seeder 1 (Количество: 1) Mega Seeder 3 (Количество: 1) Mega Seeder 2 (Количество: 1)
Торрент-статистика

Создавать темы 19-Мар-2015 11:13

[Цитировать]

Приключения викингов / Viking Quest
Страна: Канада, Болгария
Жанр: фэнтези, боевик
Год выпуска: 2014
Продолжительность: 01:27:59
Перевод: Профессиональный (многоголосый) [SDI]
Cубтитры: нет
Оригинальная аудиодорожка: нет
Режиссер: Тодор Чапканов
В ролях: Гарри Смит, Дженни Бойд, Оливер Уолкер, Аня Тейлор-Джой, Нэйт Феллоуз, Валентин Ганев, Веселин Мезеклиев, Бен Кросс, Кеймен Костов, Муса Исуфи
Описание: Скандинавия. VII век нашей эры. Эрик, молодой воин-викинг, объединяет усилия с конкурирующим кланом, чтобы спасти похищенную змеем из Мидгарда принцессу. Это опаснейшая задача с риском гораздо большим, чем риск потерять жизни. Спасая принцессу, они могут вызвать Рагнарок - конец света.

Качество видео: HDRip (Исх. BDRip 720p)
Формат видео: AVI
Видео кодек: XviD
Аудио кодек: АС3
Видео: 720x400 (1.80:1), 23.976 fps, XviD build 73 ~2162 kbps avg, 0.31 bit/pixel
Аудио: 48 kHz, AC3 Dolby Digital, 2/0 (L,R) ch, ~192.00 kbps avg

MediaInfo

Общее
Полное имя : S:ФильмыПриключения викингов. 2014. HDRip. 1.45 (AleksSin).avi
Формат : AVI
Формат/Информация : Audio Video Interleave
Размер файла : 1,45 Гбайт
Продолжительность : 1 ч. 27 м.
Общий поток : 2364 Кбит/сек
Программа кодирования : VirtualDubMod 1.5.10.3 | www.virtualdub-fr.org || (build 2550/release)
Библиотека кодирования : VirtualDubMod build 2550/release
Видео
Идентификатор : 0
Формат : MPEG-4 Visual
Профиль формата : Advanced Simple@L5
Параметр BVOP формата : 1
Параметр QPel формата : Нет
Параметр GMC формата : Без точки перехода
Параметр матрицы формата : Выборочная
Идентификатор кодека : XVID
Идентификатор кодека/Подсказка : XviD
Продолжительность : 1 ч. 27 м.
Битрейт : 2162 Кбит/сек
Ширина : 720 пикс.
Высота : 400 пикс.
Соотношение сторон : 16:9
Частота кадров : 23,976 кадр/сек
Цветовое пространство : YUV
Подвыборка цветности : 4:2:0
Битовая глубина : 8 бит
Тип развёртки : Прогрессивная
Метод сжатия : С потерями
Бит/(Пиксели*Кадры) : 0.313
Размер потока : 1,33 Гбайт (91%)
Библиотека кодирования : XviD 73
Аудио
Идентификатор : 1
Формат : AC-3
Формат/Информация : Audio Coding 3
Расширение режима : CM (complete main)
Идентификатор кодека : 2000
Продолжительность : 1 ч. 27 м.
Вид битрейта : Постоянный
Битрейт : 192 Кбит/сек
Каналы : 2 канала
Расположение каналов : Front: L R
Частота : 48,0 КГц
Битовая глубина : 16 бит
Метод сжатия : С потерями
Размер потока : 121 Мбайт (8%)
Выравнивание : Разделение по промежуткам
Продолжительность промежутка : 42 мс. (1,00 видеокадр)
Время предзагрузки промежутка : 500 ms

Скриншоты

[Профиль] [ЛС]
Кто просматривает тему:

Форум Тема Автор Размер
Travel Travel Channel: Легенды старого замка / Castle Secrets & Legends [сезон 1 серии 1-5 из 5] (Рэми Вэбер) [2014 г., Документальный, приключения, образование, история, путешествия, HDTVRip-AVC 720p] skorpionN 8.21 GB
Travel Travel: Тайны замков / Mysteries at the Castle (Castle Secrets & Legends) [сезон 2 серии 1-13 из 13] (Jeremiah Crowell) [2015 г., Документальный, приключения, образование, история, путешествия... skorpionN 18.55 GB
Travel Travel: Тайны замков / Mysteries at the Castle (Castle Secrets & Legends) [сезон 3 серии 1-13 из 13] (Amanda Abel Desai) [2015 г., Документальный, приключения, образование, история, путешествия,... skorpionN 15.38 GB
Фильмы 2013 года Альпинисты (Аршо Арутюнян) [2013 г., Приключения, боевик, HDTVRip] Шкипер 745 MB
3D Мультфильмы Астерикс: Земля Богов в 3Д / Astérix: Le domaine des dieux / Asterix: The Mansions of the Gods 3D (Л.Клиши, А.Астье / L.Clichy, A.Astier) [2014, Мультфильм, Приключения, Комедия, BDrip-AVC] Half... BOSS 4.12 GB
Зарубежное кино (CAMRip, Telesynch, SCR) Бен-Гур / Ben-Hur (Тимур Бекмамбетов) [2016, Драма, приключения, история, CAMRip] [DUB] Релиз с рекламой BOSS 1.46 GB
Зарубежные сериалы В пустыне смерти / Into the Badlands (Сезон 2 , Серия 1-10 из 10) (Дэвид Добкин) [2017 , Боевик, драма, приключения, экранизация , WEB-DLRip 1080p] [LostFilm , АМC , OmskBird , NewStudiо ,BaibaKo ,... Враг Нароода 31.69 GB
3D Мультфильмы Гадкий я в 3Д / Despicable Me 3D (Пьер Коффен, Крис Рено / Pierre Coffin, Chris Renaud) [2010, Комедия, приключения, BDremux, 1080p] BD3D BOSS 28.18 GB
Показать сообщения:    

Текущее время: Сегодня 17:36

Часовой пояс: GMT



Вы не можете начинать темы
Вы не можете отвечать на сообщения
Вы не можете редактировать свои сообщения
Вы не можете удалять свои сообщения
Вы не можете голосовать в опросах
Вы не можете прикреплять файлы к сообщениям
Вы не можете скачивать файлы