Приключения викингов / Viking Quest (Тодор Чапканов) [2014 г., фантастика, боевик, триллер, приключения] HDRip | P

 
Автор Сообщение

adeei ®

Пол:

Стаж: 1 год 8 месяцев

Сообщений: 63

Откуда: Россия Иваново



Награды: 3 (Подробнее)

Mega Seeder 1 (Количество: 1) Mega Seeder 3 (Количество: 1) Mega Seeder 2 (Количество: 1)
Торрент-статистика

Создавать темы 17-Мар-2015 15:53

[Цитировать]

Приключения викингов / Viking Quest
Год выхода: 2014
Страна: Канада, Болгария / Odyssey Media
Жанр: фантастика, боевик, триллер, приключения
Продолжительность: 01:21:11
Перевод: Профессиональное (многоголосое) [SDI]
Режиссер: Тодор Чапканов
В ролях: Гарри Смит, Дженни Бойд, Оливер Уолкер, Аня Тейлор-Джой, Нэйт Феллоуз, Валентин Ганев, Веселин Мезеклиев, Бен Кросс, Кеймен Костов, Муса Исуфи
Описание: Скандинавия. VII век нашей эры. Эрик, молодой воин-викинг, объединяет усилия с конкурирующим кланом, чтобы спасти похищенную змеем из Мидгарда принцессу. Это опаснейшая задача с риском гораздо большим, чем риск потерять жизни. Спасая принцессу, они могут вызвать Рагнарок - конец света.

Качество: HDRip
Формат: AVI
Видео: XviD, 1756 kb/s, 720x400
Аудио: Russian: AC3, 192 kb/s (2 ch) / English: AC3, 448 kb/s (6 ch)

Скриншоты

Медио инфо

Общее
Полное имя : D:\ftp\Prikly4eni9.vikingov.2014.P.HDRip.1400Mb.avi
Формат : AVI
Формат/Информация : Audio Video Interleave
Размер файла : 1,37 Гбайт
Продолжительность : 1 ч. 21 м.
Общий поток : 2410 Кбит/сек
Программа кодирования : VirtualDubMod 1.5.10.2 (build 2540/release)
Библиотека кодирования : VirtualDubMod build 2540/release
Видео
Идентификатор : 0
Формат : MPEG-4 Visual
Профиль формата : Advanced Simple@L5
Параметр BVOP формата : 2
Параметр QPel формата : Нет
Параметр GMC формата : Без точки перехода
Параметр матрицы формата : Default (MPEG)
Идентификатор кодека : XVID
Идентификатор кодека/Подсказка : XviD
Продолжительность : 1 ч. 21 м.
Битрейт : 1756 Кбит/сек
Ширина : 720 пикселей
Высота : 400 пикселей
Соотношение сторон : 16:9
Частота кадров : 23,976 кадра/сек
Цветовое пространство : YUV
Субдискретизация насыщенности : 4:2:0
Битовая глубина : 8 бит
Тип развёртки : Прогрессивная
Метод сжатия : С потерями
Бит/(Пиксели*Кадры) : 0.254
Размер потока : 1020 Мбайт (73%)
Библиотека кодирования : XviD 1.2.1 (UTC 2008-12-04)
Аудио #1
Идентификатор : 1
Формат : AC-3
Формат/Информация : Audio Coding 3
Расширение режима : CM (complete main)
Параметр Endianness формата : Big
Идентификатор кодека : 2000
Продолжительность : 1 ч. 21 м.
Вид битрейта : Постоянный
Битрейт : 192 Кбит/сек
Каналы : 2 канала
Расположение каналов : Front: L R
Частота : 48,0 КГц
Битовая глубина : 16 бит
Метод сжатия : С потерями
Размер потока : 112 Мбайт (8%)
Выравнивание : Разделение по промежуткам
Продолжительность промежутка : 42 мс. (1,00 видеокадр)
Время предзагрузки промежутка : 500 мс.
Аудио #2
Идентификатор : 2
Формат : AC-3
Формат/Информация : Audio Coding 3
Расширение режима : CM (complete main)
Параметр Endianness формата : Big
Идентификатор кодека : 2000
Продолжительность : 1 ч. 21 м.
Вид битрейта : Постоянный
Битрейт : 448 Кбит/сек
Каналы : 6 каналов
Расположение каналов : Front: L C R, Side: L R, LFE
Частота : 48,0 КГц
Битовая глубина : 16 бит
Метод сжатия : С потерями
Размер потока : 260 Мбайт (19%)
Выравнивание : Разделение по промежуткам
Продолжительность промежутка : 42 мс. (1,00 видеокадр)
Время предзагрузки промежутка : 500 мс.
[Профиль] [ЛС]
Кто просматривает тему:

Форум Тема Автор Размер
Фильмы 2011 года 007: Казино Рояль / Casino Royale (Мартин Кэмпбелл / Martin Campbell) [2006, Германия, США, Великобритания, Чехия, боевик, триллер, приключения, BDRip] Dub [Полная версия / UnCut] painkiller 1.46 GB
Фильмы (HD Rips | 720p, 1080p) 007: Спектр / Spectre (Сэм Мендес) [2015 г., Боевик, триллер, приключения, BDRip 720p] DUB (Лицензия) + AVO (Чадов) + SUB BOSS 12.73 GB
Фильмы (HD DVD, Blu-ray и BDRemux) 007: СПЕКТР / Spectre (Сэм Мендес) [2015 г., боевик, триллер, приключения, Blu-Ray 1080p] Dub [Лицензия] BOSS 41.9 GB
Фильмы (HD DVD, Blu-ray и BDRemux) 007: СПЕКТР / Spectre (Сэм Мендес) [2015 г., боевик, триллер, приключения, Blu-Ray Remux 1080p] Dub [Лицензия] BOSS 32.5 GB
Фильмы 2015 года 007: СПЕКТР / Spectre (Сэм Мендес) [2015, боевик, триллер, приключения] HDRip | [DUB] [Лицензия] BOSS 1.47 GB
Фильмы 2010 года 127 Часов / 127 Hours (Дэнни Бойл / Danny Boyle) [2010, США, Великобритания, триллер, драма, приключения, биография, BDRip-AVC] Dub + 2x DVO (Кубик в кубе, OzzTV) + AVO (Сербин) + Original + Sub... TorrentFilm 3.79 GB
Фильмы 2010 года 127 Часов / 127 Hours (Дэнни Бойл / Danny Boyle) [2010, США, Триллер, биография, драма, приключения, BDRip] Dub + Original (Eng) + Subs (Rus, Eng) TorrentFilm 1.75 GB
Классика зарубежного кино 20000 лье под водой / 20000 Leagues Under the Sea (Ричард Флайшер / Richard Fleischer) [1954, США, Фантастика, фэнтези, драма, приключения, WEB-DLRip] MVO (Светла) Russian Mafia 1.46 GB
Показать сообщения:    

Текущее время: Сегодня 06:29

Часовой пояс: GMT



Вы не можете начинать темы
Вы не можете отвечать на сообщения
Вы не можете редактировать свои сообщения
Вы не можете удалять свои сообщения
Вы не можете голосовать в опросах
Вы не можете прикреплять файлы к сообщениям
Вы не можете скачивать файлы