Приключение в пространстве и времени / An Adventure in Space and Time (Терри Макдонаф) [2013, Документальная драма, BDRip 1080p]

 
Автор Сообщение

TorrentFilm ®

Пол:

Стаж: 2 года

Сообщений: 7741



Награды: Нет

Торрент-статистика

Создавать темы 10-Янв-2015 00:00

[Цитировать]

Приключение в пространстве и времени / An Adventure in Space and Time-- Год выпуска: 2013
Страна: Великобритания
Студия: BBC
Жанр: Документальная драма
Продолжительность: 01:26:44
Перевод: Любительский (многоголосый закадровый)
Доп. инфо о переводе: WhoStudios
Русские субтитры: форсированные--Режиссер: Терри Макдонаф
В ролях: Дэвид Брэдли, Джессика Рэйн, Саша Даван, Брайан Кокс, Лэсли Менвиль, Росс Герни-Рэндалл, Роджер Мэй, Сэм Хоар, Чарли Кемп, Уильям Расселл
Описание: «Приключение в пространстве и времени» — британская телевизионная документальная драма, которая выпущена в честь 50-летия научно-фантастического телесериала «Доктор Кто», написанная Марком Гэтиссом, сценаристом сериалов «Доктор Кто» и «Шерлок». Фильм был показан на телеканале «BBC Two» в 2013 году. В нем рассказывается ранняя история создания сериала «Доктор Кто».--Альтернативные раздачи
Сэмпл
Тип релиза: BDRip 1080p
Контейнер: MKV
Видео: AVC, 1920x1080, 16:9, 12,9 Mbps, 23,976 fps
Аудио: RUS, DTS, 5.1 Ch, 48.0 KHz, 24 bit, 1 510 Kbps
Аудио 2: ENG, DTS, 5.1 Ch, 48.0 KHz, 24 bit, 1 509 Kbps
Формат субтитров: softsub (SSA/ASS)

MediaInfo

ОбщееУникальный идентификатор : 221864923813177623545742340698010776728 (0xA6E9A14A2D4715509B147BCC83837498)Полное имя : C:\Users\Bean\Downloads\Doctor Who\classic\Приключение в пространстве и времени(1080p)\Приключение в пространстве и времени(1080p).mkvФормат : MatroskaВерсия формата : Version 4 / Version 2Размер файла : 9,66 ГбайтПродолжительность : 1 ч. 26 м.Общий поток : 15,9 Мбит/секДата кодирования : UTC 2015-01-05 18:00:46Программа кодирования : mkvmerge v7.4.0 ('Circles') 64bit built on Dec 12 2014 12:19:56Библиотека кодирования : libebml v1.3.0 + libmatroska v1.4.1_STATISTICS_WRITING_APP : mkvmerge v7.4.0 ('Circles') 64bit built on Dec 12 2014 12:19:56_STATISTICS_WRITING_DATE_UTC : 2015-01-05 18:00:46_STATISTICS_TAGS : BPS DURATION NUMBER_OF_FRAMES NUMBER_OF_BYTESDURATION : 01:02:41.490000000NUMBER_OF_FRAMES : 17NUMBER_OF_BYTES : 1123
ВидеоИдентификатор : 4Формат : AVCФормат/Информация : Advanced Video CodecПрофиль формата : High@L4.1Параметр CABAC формата : ДаПараметр ReFrames формата : 4 кадраИдентификатор кодека : V_MPEG4/ISO/AVCПродолжительность : 1 ч. 26 м.Битрейт : 12,9 Мбит/секШирина : 1920 пикселейВысота : 1080 пикселейСоотношение сторон : 16:9Режим частоты кадров : ПостоянныйЧастота кадров : 23,976 кадра/секЦветовое пространство : YUVСубдискретизация насыщенности : 4:2:0Битовая глубина : 8 битТип развёртки : ПрогрессивнаяБит/(Пиксели*Кадры) : 0.260Размер потока : 7,64 Гбайт (79%)Заголовок : EnglishБиблиотека кодирования : x264 core 142 r2431 ac76440Настройки программы : cabac=1 / ref=4 / deblock=1:0:0 / analyse=0x3:0x133 / me=umh / subme=8 / psy=1 / psy_rd=1.00:0.00 / mixed_ref=1 / me_range=16 / chroma_me=1 / trellis=1 / 8x8dct=1 / cqm=0 / deadzone=21,11 / fast_pskip=0 / chroma_qp_offset=-2 / threads=6 / lookahead_threads=1 / sliced_threads=0 / nr=0 / decimate=1 / interlaced=0 / bluray_compat=0 / constrained_intra=0 / bframes=3 / b_pyramid=2 / b_adapt=1 / b_bias=0 / direct=1 / weightb=1 / open_gop=0 / weightp=2 / keyint=250 / keyint_min=23 / scenecut=40 / intra_refresh=0 / rc_lookahead=40 / rc=2pass / mbtree=1 / bitrate=12925 / ratetol=1.0 / qcomp=0.60 / qpmin=0 / qpmax=69 / qpstep=4 / cplxblur=20.0 / qblur=0.5 / ip_ratio=1.40 / aq=1:1.00Язык : EnglishDefault : ДаForced : Нет
Аудио #1Идентификатор : 1Формат : DTSФормат/Информация : Digital Theater SystemsРежим : 16Параметр Endianness формата : BigИдентификатор кодека : A_DTSПродолжительность : 1 ч. 26 м.Вид битрейта : ПостоянныйБитрейт : 1510 Кбит/секКаналы : 6 каналовРасположение каналов : Front: L C R, Side: L R, LFEЧастота : 48,0 КГцБитовая глубина : 24 битМетод сжатия : С потерямиРазмер потока : 937 Мбайт (9%)Заголовок : RussianЯзык : RussianDefault : НетForced : Да_STATISTICS_WRITING_APP : mkvmerge v7.4.0 ('Circles') 64bit built on Dec 12 2014 12:19:56_STATISTICS_WRITING_DATE_UTC : 2015-01-05 18:00:46_STATISTICS_TAGS : BPS DURATION NUMBER_OF_FRAMES NUMBER_OF_BYTESDURATION : 01:26:44.158000000NUMBER_OF_FRAMES : 124775NUMBER_OF_BYTES : 8402243501
Аудио #2Идентификатор : 3Формат : DTSФормат/Информация : Digital Theater SystemsРежим : 16Параметр Endianness формата : BigИдентификатор кодека : A_DTSПродолжительность : 1 ч. 26 м.Вид битрейта : ПостоянныйБитрейт : 1509 Кбит/секКаналы : 6 каналовРасположение каналов : Front: L C R, Side: L R, LFEЧастота : 48,0 КГцБитовая глубина : 24 битМетод сжатия : С потерямиРазмер потока : 936 Мбайт (9%)Заголовок : EnglishЯзык : EnglishDefault : ДаForced : Нет
Текст #1Идентификатор : 2Формат : ASSИдентификатор кодека : S_TEXT/ASSИдентификатор кодека/Информация : Advanced Sub Station AlphaМетод сжатия : Без потерьЯзык : RussianDefault : ДаForced : Да
Текст #2Идентификатор : 5Формат : UTF-8Идентификатор кодека : S_TEXT/UTF8Идентификатор кодека/Информация : UTF-8 Plain TextЗаголовок : EnglishЯзык : EnglishDefault : НетForced : Нет

Скриншоты

[Профиль] [ЛС]
Кто просматривает тему:

Форум Тема Автор Размер
Фильмы 2011 года 007: Казино Рояль / Casino Royale (Мартин Кэмпбелл / Martin Campbell) [2006, Германия, США, Великобритания, Чехия, боевик, триллер, приключения, BDRip] Dub [Полная версия / UnCut] painkiller 1.46 GB
Фильмы (HD Rips | 720p, 1080p) 007: Спектр / Spectre (Сэм Мендес) [2015 г., Боевик, триллер, приключения, BDRip 720p] DUB (Лицензия) + AVO (Чадов) + SUB BOSS 12.73 GB
Фильмы (HD DVD, Blu-ray и BDRemux) 007: СПЕКТР / Spectre (Сэм Мендес) [2015 г., боевик, триллер, приключения, Blu-Ray 1080p] Dub [Лицензия] BOSS 41.9 GB
Фильмы (HD DVD, Blu-ray и BDRemux) 007: СПЕКТР / Spectre (Сэм Мендес) [2015 г., боевик, триллер, приключения, Blu-Ray Remux 1080p] Dub [Лицензия] BOSS 32.5 GB
Фильмы 2015 года 007: СПЕКТР / Spectre (Сэм Мендес) [2015, боевик, триллер, приключения] HDRip | [DUB] [Лицензия] BOSS 1.47 GB
Фильмы 2010 года 127 Часов / 127 Hours (Дэнни Бойл / Danny Boyle) [2010, США, Великобритания, триллер, драма, приключения, биография, BDRip-AVC] Dub + 2x DVO (Кубик в кубе, OzzTV) + AVO (Сербин) + Original + Sub... TorrentFilm 3.79 GB
Фильмы 2010 года 127 Часов / 127 Hours (Дэнни Бойл / Danny Boyle) [2010, США, Триллер, биография, драма, приключения, BDRip] Dub + Original (Eng) + Subs (Rus, Eng) TorrentFilm 1.75 GB
Классика зарубежного кино 20000 лье под водой / 20000 Leagues Under the Sea (Ричард Флайшер / Richard Fleischer) [1954, США, Фантастика, фэнтези, драма, приключения, WEB-DLRip] MVO (Светла) Russian Mafia 1.46 GB
Показать сообщения:    

Текущее время: Сегодня 18:49

Часовой пояс: GMT



Вы не можете начинать темы
Вы не можете отвечать на сообщения
Вы не можете редактировать свои сообщения
Вы не можете удалять свои сообщения
Вы не можете голосовать в опросах
Вы не можете прикреплять файлы к сообщениям
Вы не можете скачивать файлы