Призыв / The Call Up (2016) WEB-DL 1080p | L1

 
Автор Сообщение

достали все ®

Пол:

Стаж: 1 год 8 месяцев

Сообщений: 6515



Награды: 12 (Подробнее)

Mega Seeder 1 (Количество: 1) Mega Releaser 1 (Количество: 1) Mega Seeder 3 (Количество: 1)
Торрент-статистика

Создавать темы 26-Июн-2016 14:08

[Цитировать]

Информация о фильме
Название: Призыв
Оригинальное название: The Call Up
Год выхода: 2016
Жанр: фантастика, боевик
Режиссер: Charles Barker
В ролях: Кристофер Оби, Паркер Сойерс, Морфидд Кларк, Макс Дикон, Дино Фаззани, Том Бенедикт Найт, Грег Колпакчи, Адриана Рэндолл, Али Кук, Мак Пиетовски
О фильме: Группа элитных онлайн-игроков получает таинственное приглашение от корпорации Заибатцу, испытать в реальной жизни крутую видеоигру — это мечта, перед которой невозможно устоять. Прибыв на полигон, группа получает высокотехнологичную экипировку и готовится к революционной игре. Но то, что начинается как встреча с мечтой, уникальным и волнующим опытом, быстро превращается в зловещую игру. Как только группа подвергается нападению со стороны вражеских военных, они понимают, что это не игра. Сделаешь ошибку — и ты поплатишься жизнью. Теперь этим мастерам компьютерных игр придется бороться за выживание по-настоящему.

Выпущено: Великобритания / Red & Black Films, Stigma Films
Продолжительность: 01:30:29
Озвучивание: Любительское (одноголосое) [Хихикающий доктор]
Файл
Формат: MKV
Качество: WEB-DL 1080p
Видео: MPEG-4 AVC, 4846 kb/s, 1904x1032
Аудио: Russian: AC3, 192 kb/s (2 ch) / English: AC3, 384 kb/s (6 ch)
Субтитры: English

MI

Format : Matroska
Format version : Version 2
File size : 3.50 GiB
Duration : 1h 30mn
Overall bit rate : 5 532 Kbps
Encoded date : UTC 2016-06-26 12:56:34
Writing application : mkvmerge v7.8.0 ('River Man') 32bit built on Apr 3 2015 12:11:22
Writing library : libebml v1.3.1 + libmatroska v1.4.2
Video
ID : 1
Format : AVC
Format/Info : Advanced Video Codec
Format profile : High@L4
Format settings, CABAC : Yes
Format settings, ReFrames : 4 frames
Codec ID : V_MPEG4/ISO/AVC
Duration : 1h 30mn
Bit rate : 4 846 Kbps
Width : 1 904 pixels
Height : 1 032 pixels
Display aspect ratio : 1.85:1
Frame rate mode : Constant
Frame rate : 23.976 fps
Color space : YUV
Chroma subsampling : 4:2:0
Bit depth : 8 bits
Scan type : Progressive
Bits/(Pixel*Frame) : 0.103
Stream size : 3.06 GiB (88%)
Language : English
Default : Yes
Forced : No
Color range : Limited
Color primaries : BT.709
Transfer characteristics : BT.709
Matrix coefficients : BT.709
Audio #1
ID : 2
Format : AC-3
Format/Info : Audio Coding 3
Mode extension : CM (complete main)
Format settings, Endianness : Big
Codec ID : A_AC3
Duration : 1h 30mn
Bit rate mode : Constant
Bit rate : 192 Kbps
Channel(s) : 2 channels
Channel positions : Front: L R
Sampling rate : 48.0 KHz
Bit depth : 16 bits
Compression mode : Lossy
Stream size : 124 MiB (3%)
Language : Russian
Default : Yes
Forced : No
Audio #2
ID : 3
Format : AC-3
Format/Info : Audio Coding 3
Mode extension : CM (complete main)
Format settings, Endianness : Big
Codec ID : A_AC3
Duration : 1h 30mn
Bit rate mode : Constant
Bit rate : 384 Kbps
Channel(s) : 6 channels
Channel positions : Front: L C R, Side: L R, LFE
Sampling rate : 48.0 KHz
Bit depth : 16 bits
Compression mode : Lossy
Stream size : 249 MiB (7%)
Language : English
Default : No
Forced : No
Text
ID : 4
Format : UTF-8
Codec ID : S_TEXT/UTF8
Codec ID/Info : UTF-8 Plain Text
Language : English
Default : No
Forced : No
Menu
00:00:00.000 : en:Opening Sequence
00:05:52.000 : en:Why Soxxx?
00:11:25.000 : en:It's A Computer Screen?
00:17:27.000 : en:Good Reflexes
00:22:57.000 : en:Then Shoot Someone!
00:29:02.000 : en:What Was That?
00:35:12.000 : en:Your Best Shot
00:40:20.000 : en:Floor 17
00:46:38.000 : en:Where's Taylor?
00:52:29.000 : en:He Knows The Code
00:57:45.000 : en:What Do You See?
01:03:51.000 : en:I Couldn't Help Emma
01:09:26.000 : en:Atlas
01:15:40.000 : en:I Need A MediPack!
01:20:48.000 : en:She's Waking Up
01:27:11.000 : en:End Credits

Скриншоты



[Профиль] [ЛС]
Показать сообщения:    

Текущее время: Сегодня 02:44

Часовой пояс: GMT



Вы не можете начинать темы
Вы не можете отвечать на сообщения
Вы не можете редактировать свои сообщения
Вы не можете удалять свои сообщения
Вы не можете голосовать в опросах
Вы не можете прикреплять файлы к сообщениям
Вы не можете скачивать файлы