Призрачный патруль в 3Д / R.I.P.D 3D (Роберт Швентке / Robert Schwentke) [2013, Фэнтези, Боевик, Комедия, BD3D Remux, 1080p] BD3D Remux, DUB Blu-ray CEE

 
Автор Сообщение

TorrentFilm ®

Пол:

Стаж: 2 года

Сообщений: 7741



Награды: Нет

Торрент-статистика

Создавать темы 02-Янв-2016 00:07

[Цитировать]

Призрачный патруль / R.I.P.D
Год выпуска: 2013
Страна: США
Студия: Universal Pictures, Original Film, Dark Horse
Жанр: Фэнтези, Боевик, Комедия
Продолжительность: 01:35:54
Перевод: Профессиональный (дублированный), Blu-ray CEE
Русские субтитры: нет
Режиссер на русском: Роберт Швентке
Режиссер на английском: Robert Schwentke
Описание: Детективы из загробного департамента расследуют преступления по ту сторону могилы и гоняются за не в меру ретивой нечистью. Молодой коп, после гибели от руки неизвестного злоумышленника угодивший в мир иной, в обмен на помощь при расследовании собственного убийства обязуется следующие сто лет посвятить службе в R.I.P.D. и, получив в напарники брутального стрелка эпохи вестернов, выходит на борьбу с неупокоившимся злом.
Бонусы: нет
Меню: нет
Дополнительная информация по релизу: : Ремукс сделан программой tsmuxer из оригинального bd3d и дублированной дороги с Blu-ray CEE. Воспроизведение проверено программой PowerDVD и на железном плеере oppo 93.
Просьба перекачать торрент в связи с заменой дороги на дубляж с Blu-ray CEE.
Качество: BD3D Remux
Контейнер: ISO
Формат 3D: Blu-ray 3D>BD3D Remux
Видео кодек: MVC, AVC
Аудио кодек: DTS
Видео: MVC/ 1920x1080p / 23.976 fps / 16:9 / High Profile 4.1, ~ 34000 kbps
Аудио: Русский/Дублированный Blu-ray CEE/ DTS/ 6 ch/ 48,0 КГц/ 768 Кбит/с
Субтитры: нет

MediaInfo

Формат : Blu-ray Playlist
Размер файла : 544 байт
Продолжительность : 1 ч. 35 м.
Режим общего битрейта : Переменный
Общий поток : 1 бит/сек
Видео
Идентификатор : 4114 (0x1012) / 4113 (0x1011)
Идентификатор меню : 1 (0x1)
Формат : AVC
Формат/Информация : Advanced Video Codec
Профиль формата : Stereo High@L4.1 / High@L4.1
Параметр CABAC формата : Да
Параметр ReFrames формата : 3 кадра
Идентификатор кодека : 27
Продолжительность : 1 ч. 35 м.
Вид битрейта : Переменный
Битрейт : 33,4 Мбит/сек / 23,2 Мбит/сек
Максимальный битрейт : 34,0 Мбит/сек
Ширина : 1920 пикселей
Высота : 1080 пикселей
Соотношение сторон : 16:9
Частота кадров : 23,976 кадра/сек
Цветовое пространство : YUV
Субдискретизация насыщенности : 4:2:0
Битовая глубина : 8 бит
Тип развёртки : Прогрессивная
Бит/(Пиксели*Кадры) : 0.671
Размер потока : 15,6 Гбайт (93%)
format_identifier : HDMV
Оригинал : 00001.m2ts / 00000.m2ts
Аудио
Идентификатор : 4352 (0x1100)
Идентификатор меню : 1 (0x1)
Формат : DTS
Формат/Информация : Digital Theater Systems
Режим : 16
Параметр Endianness формата : Big
Идентификатор кодека : 130
Продолжительность : 1 ч. 35 м.
Вид битрейта : Постоянный
Битрейт : 768 Кбит/сек
Каналы : 6 каналов
Расположение каналов : Front: L C R, Side: L R, LFE
Частота : 48,0 КГц
Битовая глубина : 24 бит
Метод сжатия : С потерями
Задержка видео : 3 мс.
Размер потока : 526 Мбайт (3%)
Язык : Russian
Оригинал : 00000.m2ts
Меню
00:00:00.000 : Chapter 1
00:03:57.111 : Chapter 2
00:09:13.135 : Chapter 3
00:14:30.577 : Chapter 4
00:17:58.411 : Chapter 5
00:22:30.598 : Chapter 6
00:27:09.502 : Chapter 7
00:33:33.510 : Chapter 8
00:38:46.157 : Chapter 9
00:43:27.646 : Chapter 10
00:46:31.746 : Chapter 11
00:52:04.038 : Chapter 12
00:55:52.099 : Chapter 13
01:02:15.981 : Chapter 14
01:07:01.099 : Chapter 15
01:10:35.689 : Chapter 16
01:13:16.309 : Chapter 17
01:17:52.126 : Chapter 18
01:23:00.934 : Chapter 19
01:27:27.908 : Chapter 20

Скриншоты

[Профиль] [ЛС]
Показать сообщения:    

Текущее время: Сегодня 16:26

Часовой пояс: GMT



Вы не можете начинать темы
Вы не можете отвечать на сообщения
Вы не можете редактировать свои сообщения
Вы не можете удалять свои сообщения
Вы не можете голосовать в опросах
Вы не можете прикреплять файлы к сообщениям
Вы не можете скачивать файлы