Призрачный гонщик / Ghost Rider (2007) BDRip 1080p | Extended Cut

 
Автор Сообщение

Russian Mafia ®

Пол:

Стаж: 1 год 8 месяцев

Сообщений: 4257



Награды: 10 (Подробнее)

Top Releaser 2 (Количество: 1) Mega Seeder 2 (Количество: 1) Top Releaser 4 (Количество: 1)
Торрент-статистика

Создавать темы 08-Сен-2015 10:00

[Цитировать]

Информация о фильме
Название: Призрачный гонщик
Оригинальное название: Ghost Rider
Год выхода: 2007
Жанр: фэнтези, боевик, триллер
Режиссер: Марк Стивен Джонсон
В ролях: Николас Кейдж, Ева Мендес, Уэс Бентли, Питер Фонда, Сэм Эллиотт, Мэтт Лонг, Ракель Алесси, Бретт Каллен, Донал Лог, Тони Гоустхок
О фильме: Чтобы спасти своего отца от верной гибели, байкер-экстремал Джонни Блэйз заключает сделку с дьяволом, объектом которой является его бессмертная душа. Проходят годы, и дьявол предъявляет свои права по контракту. Он превращает Джонни в Призрачного Гонщика, агента потусторонних сил, обладающего сверхчеловеческими способностями.

Выпущено: Columbia Pictures Corporation
Продолжительность: 02:03:25
Перевод: Профессиональный (многоголосый, закадровый) (лицензия)
Файл
Кодек: x264
Качество: BDRip (источник: Blu-ray Disc)
Видео: 1920x800 (2,40:1), 23.976 fps, 5415 kbps
Аудио #1: AC-3, 6 ch, 640 kbps (Rus)
Аудио #2: AC-3, 6 ch, 640 kbps (Eng)
Субтитры: Английские
Скачать: сэмпл
Скриншоты

MI

Общее
Уникальный идентификатор : 228455781709413098405203843029669594795 (0xABDEFBAC32391A488959D2D55CD946AB)
Полное имя : Ghost.Rider.2007.BDRip.1080p.Rus.Eng.mkv
Формат : Matroska
Версия формата : Version 2
Размер файла : 5,77 Гбайт
Продолжительность : 2 ч. 3 м.
Общий поток : 6697 Кбит/сек
Название фильма : Призрачный гонщик / Ghost Rider (2007)
Дата кодирования : UTC 2012-04-19 11:43:40
Программа кодирования : mkvmerge v4.0.0 ('The Stars were mine') сборка от Jun 6 2010 16:18:42
Библиотека кодирования : libebml v1.0.0 + libmatroska v1.0.0
Видео
Идентификатор : 1
Формат : AVC
Формат/Информация : Advanced Video Codec
Профиль формата : High@L4.1
Параметр CABAC формата : Да
Параметр ReFrames формата : 5 кадров
Идентификатор кодека : V_MPEG4/ISO/AVC
Продолжительность : 2 ч. 3 м.
Битрейт : 5415 Кбит/сек
Ширина : 1920 пикселей
Высота : 800 пикселей
Соотношение сторон : 2,40:1
Частота кадров : 23,976 кадра/сек
Цветовое пространство : YUV
Субдискретизация насыщенности : 4:2:0
Битовая глубина : 8 бит
Тип развёртки : Прогрессивная
Бит/(Пиксели*Кадры) : 0.147
Размер потока : 4,56 Гбайт (79%)
Заголовок : Release by AlexKa
Библиотека кодирования : x264 core 122 r2184 5c85e0a
Настройки программы : cabac=1 / ref=5 / deblock=1:0:0 / analyse=0x3:0x133 / me=umh / subme=10 / psy=1 / psy_rd=1.00:0.10 / mixed_ref=1 / me_range=32 / chroma_me=1 / trellis=2 / 8x8dct=1 / cqm=0 / deadzone=21,11 / fast_pskip=0 / chroma_qp_offset=-3 / threads=12 / sliced_threads=0 / nr=0 / decimate=0 / interlaced=0 / bluray_compat=0 / constrained_intra=0 / bframes=5 / b_pyramid=2 / b_adapt=2 / b_bias=0 / direct=3 / weightb=1 / open_gop=0 / weightp=2 / keyint=240 / keyint_min=23 / scenecut=40 / intra_refresh=0 / rc_lookahead=60 / rc=2pass / mbtree=1 / bitrate=5415 / ratetol=1.0 / qcomp=0.60 / qpmin=0 / qpmax=69 / qpstep=4 / cplxblur=20.0 / qblur=0.5 / ip_ratio=1.40 / aq=1:1.00
Язык : English
Аудио #1
Идентификатор : 2
Формат : AC-3
Формат/Информация : Audio Coding 3
Расширение режима : CM (complete main)
Идентификатор кодека : A_AC3
Продолжительность : 2 ч. 3 м.
Вид битрейта : Постоянный
Битрейт : 640 Кбит/сек
Каналы : 6 каналов
Расположение каналов : Front: L C R, Side: L R, LFE
Частота : 48,0 КГц
Битовая глубина : 16 бит
Метод сжатия : С потерями
Размер потока : 565 Мбайт (10%)
Заголовок : Rus
Язык : Russian
Аудио #2
Идентификатор : 3
Формат : AC-3
Формат/Информация : Audio Coding 3
Расширение режима : CM (complete main)
Идентификатор кодека : A_AC3
Продолжительность : 2 ч. 3 м.
Вид битрейта : Постоянный
Битрейт : 640 Кбит/сек
Каналы : 6 каналов
Расположение каналов : Front: L C R, Side: L R, LFE
Частота : 48,0 КГц
Битовая глубина : 16 бит
Метод сжатия : С потерями
Размер потока : 565 Мбайт (10%)
Заголовок : Eng
Язык : English
Текст
Идентификатор : 4
Формат : UTF-8
Идентификатор кодека : S_TEXT/UTF8
Идентификатор кодека/Информация : UTF-8 Plain Text
Заголовок : Eng
Язык : English
Меню
00:00:00.000 : :Chapter 01
00:09:21.394 : :Chapter 02
00:18:28.690 : :Chapter 03
00:21:21.571 : :Chapter 04
00:28:40.135 : :Chapter 05
00:35:54.110 : :Chapter 06
00:42:02.102 : :Chapter 07
00:47:37.646 : :Chapter 08
00:56:00.607 : :Chapter 09
01:05:50.029 : :Chapter 10
01:12:49.198 : :Chapter 11
01:18:28.286 : :Chapter 12
01:25:15.235 : :Chapter 13
01:37:06.111 : :Chapter 14
01:45:45.839 : :Chapter 15
01:49:38.780 : :Chapter 16

x264

x264 [info]: frame I:1577 Avg QP:17.21 size:155320
x264 [info]: frame P:39691 Avg QP:20.43 size: 53492
x264 [info]: frame B:136284 Avg QP:22.48 size: 19405
[Профиль] [ЛС]
Показать сообщения:    

Текущее время: Сегодня 18:50

Часовой пояс: GMT



Вы не можете начинать темы
Вы не можете отвечать на сообщения
Вы не можете редактировать свои сообщения
Вы не можете удалять свои сообщения
Вы не можете голосовать в опросах
Вы не можете прикреплять файлы к сообщениям
Вы не можете скачивать файлы