Призрак (Александр Войтинский) [2015, Россия , комедия, WEB-DLRip] (iTunes)

 
Автор Сообщение

AleksSin ®

Пол:

Стаж: 6 лет 5 месяцев

Сообщений: 221



Награды: 4 (Подробнее)

Mega Seeder 4 (Количество: 1) Mega Seeder 1 (Количество: 1) Mega Seeder 3 (Количество: 1)
Торрент-статистика

Создавать темы 17-Апр-2015 07:39

[Цитировать]

Призрак
Страна: Россия
Жанр: комедия
Год выпуска: 2015
Продолжительность: 01:53:43
Перевод: Не требуется [iTunes]
Cубтитры: нет
Оригинальная аудиодорожка: нет
Режиссер: Александр Войтинский
В ролях: Фёдор Бондарчук, Семен Трескунов, Ян Цапник, Анна Антонова, Игорь Угольников, Ксения Лаврова-Глинка, Софья Райзман, Ани Петросян, Алексей Лукин, Ольга Кузьмина
Описание: Еще вчера Юрий Гордеев — амбициозный авиаконструктор и любимец женщин — был в шаге от своего триумфа. Его самолет ЮГ-1 должен был стать настоящим прорывом в отечественной авиации. Но сегодня его никто не видит и не слышит, и конкурент по бизнесу беспрепятственно закрывает его компанию. Все потому, что Юра разбился в автокатастрофе и стал призраком.

Качество видео: WEB-DLRip (Исх. WEB-DL 720p)
Формат видео: AVI
Видео кодек: XviD
Аудио кодек: АС3
Видео: 720x304 (2.37:1), 24 fps, XviD build 73 ~2178 kbps avg, 0.41 bit/pixel
Аудио: 48 kHz, AC3 Dolby Digital, 3/2 (L,C,R,l,r) + LFE ch, ~384.00 kbps avg

MediaInfo

Общее
Полное имя : S:Призрак. 2015. WEB-DLRip (AleksSin).avi
Формат : AVI
Формат/Информация : Audio Video Interleave
Профиль формата : OpenDML
Размер файла : 2,04 Гбайт
Продолжительность : 1 ч. 53 м.
Общий поток : 2574 Кбит/сек
Программа кодирования : VirtualDubMod 1.5.10.3 | www.virtualdub-fr.org || (build 2550/release)
Библиотека кодирования : VirtualDubMod build 2550/release
Видео
Идентификатор : 0
Формат : MPEG-4 Visual
Профиль формата : Advanced Simple@L5
Параметр BVOP формата : 1
Параметр QPel формата : Нет
Параметр GMC формата : Без точки перехода
Параметр матрицы формата : Выборочная
Идентификатор кодека : XVID
Идентификатор кодека/Подсказка : XviD
Продолжительность : 1 ч. 53 м.
Битрейт : 2178 Кбит/сек
Ширина : 720 пикс.
Высота : 304 пикс.
Соотношение сторон : 2,35:1
Частота кадров : 24,000 кадр/сек
Цветовое пространство : YUV
Подвыборка цветности : 4:2:0
Битовая глубина : 8 бит
Тип развёртки : Прогрессивная
Метод сжатия : С потерями
Бит/(Пиксели*Кадры) : 0.415
Размер потока : 1,73 Гбайт (85%)
Библиотека кодирования : XviD 73
Аудио
Идентификатор : 1
Формат : AC-3
Формат/Информация : Audio Coding 3
Расширение режима : CM (complete main)
Идентификатор кодека : 2000
Продолжительность : 1 ч. 53 м.
Вид битрейта : Постоянный
Битрейт : 384 Кбит/сек
Каналы : 6 каналов
Расположение каналов : Front: L C R, Side: L R, LFE
Частота : 48,0 КГц
Битовая глубина : 16 бит
Метод сжатия : С потерями
Размер потока : 312 Мбайт (15%)
Выравнивание : Разделение по промежуткам
Продолжительность промежутка : 42 мс. (1,00 видеокадр)
Время предзагрузки промежутка : 500 ms

Скриншоты

[Профиль] [ЛС]

AleksSin ®

Пол:

Стаж: 6 лет 5 месяцев

Сообщений: 221



Награды: 4 (Подробнее)

Mega Seeder 4 (Количество: 1) Mega Seeder 2 (Количество: 1) Mega Seeder 3 (Количество: 1)
Торрент-статистика

Создавать темы 17-Апр-2015 14:14 (спустя 6 часов)

[Цитировать]

Заменил 2.04 GB на стандартный размер 2.05 GB
[Профиль] [ЛС]
Кто просматривает тему:

Форум Тема Автор Размер
BBC BBC: Мир природы. Андские медведи – призраки леса / The Natural World. Spectacled Bears [сезон 27 эпизод 13] (Fergus Beeley, Angel Garcia-Rojo) [2008 г., Документальный, научно-популярный,... skorpionN 1.49 GB
Фильмы (HD Rips | 720p, 1080p) Cнайпер: воин призрак / Sniper: Ghost Shooter (2016) WEB-DL 720p | iTunes достали все 3.11 GB
Фильмы 2016 года Cнайпер: воин призрак / Sniper: Ghost Shooter (2016) WEB-DLRip | iTunes достали все 746 MB
Фильмы (HD Rips | 720p, 1080p) Cпайпер: воин призрак / Sniper: Ghost Shooter (2016) WEB-DL 1080p | iTunes достали все 3.83 GB
S.T.A.L.K.E.R. S.T.A.L.K.E.R.: Call of Pripyat - Призраки прошлого v1.6.02 (2015/RUS/RePack by SeregA-Lus) (2015) (SoR — TeaM) (ENG+RUS) [RePack] Richi Keeper 2.86 GB
Action Sniper Ghost Warrior 2 Collectors Edition / Снайпер: Воин-призрак 2 [L] [ENG|Multi7/ENG] (2013) (v.1.09) TorrentFilm 8.51 GB
Action Sniper: Ghost Warrior 2 / Снайпер: Воин-призрак 2 [RePack] (RUS / ENG) (2013) (1.09 + 5 DLC) TorrentFilm 5.49 GB
Фантастика, фэнтези Андрей Ливадный - Призрачный Сервер. Черное Солнце [2016 г., Фантастика, FB2] RUS Garik014 1 MB
Показать сообщения:    

Текущее время: Сегодня 19:38

Часовой пояс: GMT



Вы не можете начинать темы
Вы не можете отвечать на сообщения
Вы не можете редактировать свои сообщения
Вы не можете удалять свои сообщения
Вы не можете голосовать в опросах
Вы не можете прикреплять файлы к сообщениям
Вы не можете скачивать файлы