Призрак / The Ghost Writer (2010) BDRip 1080p от NNNB | D,A

 
Автор Сообщение

sergej644 ®

Пол:

Стаж: 4 года 11 месяцев

Сообщений: 6046

Откуда: Soviet Union



Награды: Нет

Торрент-статистика

Создавать темы 24-Янв-2015 00:03

[Цитировать]

Название: Призрак
Оригинальное название: The Ghost Writer
Год выпуска: 2010
Жанр: Триллер, детектив
Выпущено: Франция, Германия, Великобритания, Elfte Babelsberg Film, France 2 Cinéma, R.P. Productions, Runteam Ltd.
Режиссер: Роман Полански
В ролях: Эван МакГрегор, Пирс Броснан, Джон Бернтал, Тим Прис, Джеймс Белуши, Тимоти Хаттон, Анна Боттинг, Ивонн Томлинсон, Милтон Уэлш, Алистер Мадзотти, Тим Фарадей, Ким Кэтролл, Кейт Коуплэнд
Перевод: Дублированный, авторский
Сюжет фильма
«Призраками пера» зовут в издательском мире «литературных негров». Их жизнь и муки творчества неизвестны никому, но результаты их трудов становятся бестселлерами. Один из них погибает таинственной смертью как раз накануне сдачи будущего хита продаж, мемуаров бывшего премьер-министра Великобритании Адама Лэнга. Чтобы завершить «труд» политика, издательство нанимает Призрака-профессионала. Но педантичный и обычно успешный Призрак даже не представлял, что задача написать мемуары - из числа смертельно опасных, когда в биографии твоего героя - сплошь и рядом белые пятна, подозрительно напоминающие реальные государственные тайны. Экранизация произведения Роберта Харриса.

Награды и номинации:

Сезар, 2011 год
Победитель (4):
Лучший режиссер (Роман Полански)
Лучший адаптированный сценарий
Лучший монтаж
Лучший саундтрек
Номинации (4):
Лучший фильм
Лучшая работа оператора
Лучший звук
Лучшие декорации
Гойя, 2011 год
Номинации (1):
Лучший европейский фильм
Берлинский кинофестиваль, 2010 год
Победитель (1):
Серебряный Медведь за лучшую режиссерскую работу (Роман Полански)
Номинации (1):
Золотой Медведь
Европейская киноакадемия, 2010 год
Победитель (6):
Лучший фильм
Лучшая мужская роль (Юэн МакГрегор)
Лучший режиссер (Роман Полански)
Лучшая работа сценариста (Роман Полански, Роберт Харрис)
Лучший композитор (Александр Депла)
Лучшая работа художника-постановщика
Номинации (1):
Лучший монтаж
Файл
Качество: BDRip 1080p (исходник Blu-ray Remux)
Видео: 1920x820, 6 937 Кбит/сек, 23.976 кадр/сек, AVC, x264, High@L4.1, 0.184 Бит/[Пиксели*Кадры], 2pass
Аудио 1: AC3 5.1 48 kHz 640 kbps - Дублированный
Аудио 2: AC3 5.1 48 kHz 640 kbps - Авторский Ю. Сербин
Аудио 3: AC3 5.1 48 kHz 640 kbps - English
Чаптеры: есть (подписанные)
Субтитры: Russian (Voronine) / English
Продолжительность: 02:08:29

Скриншоты

MediaInfo

Format : Matroska
Format version : Version 2
File size : 7.95 GiB
Duration : 2h 8mn
Overall bit rate : 8 859 Kbps
Movie name : Prizrak.(2009).BDRip.1080p.[denis100]
Encoded date : UTC 2014-07-28 08:10:08
Writing application : mkvmerge v5.8.0 ('No Sleep / Pillow') built on Sep 2 2012 15:37:04
Writing library : libebml v1.2.3 + libmatroska v1.3.0
Video
ID : 1
Format : AVC
Format/Info : Advanced Video Codec
Format profile : High@L4.1
Format settings, CABAC : Yes
Format settings, ReFrames : 5 frames
Codec ID : V_MPEG4/ISO/AVC
Duration : 2h 8mn
Bit rate : 6 937 Kbps
Width : 1 920 pixels
Height : 820 pixels
Display aspect ratio : 2.35:1
Frame rate mode : Constant
Frame rate : 23.976 fps
Color space : YUV
Chroma subsampling : 4:2:0
Bit depth : 8 bits
Scan type : Progressive
Bits/(Pixel*Frame) : 0.184
Stream size : 6.07 GiB (76%)
Title : Prizrak.(2009).BDRip.1080p.[denis100]
Writing library : x264 core 138 r2358 9e941d1
Encoding settings : cabac=1 / ref=5 / deblock=1:-3:-3 / analyse=0x3:0x133 / me=umh / subme=11 / psy=1 / psy_rd=1.00:0.15 / mixed_ref=1 / me_range=32 / chroma_me=1 / trellis=2 / 8x8dct=1 / cqm=0 / deadzone=21,11 / fast_pskip=0 / chroma_qp_offset=-3 / threads=6 / lookahead_threads=1 / sliced_threads=0 / nr=0 / decimate=1 / interlaced=0 / bluray_compat=0 / constrained_intra=0 / bframes=10 / b_pyramid=2 / b_adapt=2 / b_bias=0 / direct=3 / weightb=1 / open_gop=0 / weightp=2 / keyint=240 / keyint_min=23 / scenecut=40 / intra_refresh=0 / rc_lookahead=40 / rc=2pass / mbtree=1 / bitrate=6937 / ratetol=1.0 / qcomp=0.60 / qpmin=0 / qpmax=69 / qpstep=4 / cplxblur=20.0 / qblur=0.5 / ip_ratio=1.40 / aq=1:0.90
Language : English
Default : Yes
Forced : No
Audio #1
ID : 2
Format : AC-3
Format/Info : Audio Coding 3
Mode extension : CM (complete main)
Format settings, Endianness : Big
Codec ID : A_AC3
Duration : 2h 8mn
Bit rate mode : Constant
Bit rate : 640 Kbps
Channel(s) : 6 channels
Channel positions : Front: L C R, Side: L R, LFE
Sampling rate : 48.0 KHz
Bit depth : 16 bits
Compression mode : Lossy
Stream size : 588 MiB (7%)
Title : Дублированный
Language : Russian
Default : Yes
Forced : No
Audio #2
ID : 3
Format : AC-3
Format/Info : Audio Coding 3
Mode extension : CM (complete main)
Format settings, Endianness : Big
Codec ID : A_AC3
Duration : 2h 8mn
Bit rate mode : Constant
Bit rate : 640 Kbps
Channel(s) : 6 channels
Channel positions : Front: L C R, Side: L R, LFE
Sampling rate : 48.0 KHz
Bit depth : 16 bits
Compression mode : Lossy
Stream size : 588 MiB (7%)
Title : Авторский Ю. Сербин
Language : Russian
Default : No
Forced : No
Audio #3
ID : 4
Format : AC-3
Format/Info : Audio Coding 3
Mode extension : CM (complete main)
Format settings, Endianness : Big
Codec ID : A_AC3
Duration : 2h 8mn
Bit rate mode : Constant
Bit rate : 640 Kbps
Channel(s) : 6 channels
Channel positions : Front: L C R, Side: L R, LFE
Sampling rate : 48.0 KHz
Bit depth : 16 bits
Compression mode : Lossy
Stream size : 588 MiB (7%)
Title : English
Language : English
Default : No
Forced : No
Text #1
ID : 5
Format : UTF-8
Codec ID : S_TEXT/UTF8
Codec ID/Info : UTF-8 Plain Text
Title : Voronine
Language : Russian
Default : No
Forced : No
Text #2
ID : 6
Format : UTF-8
Codec ID : S_TEXT/UTF8
Codec ID/Info : UTF-8 Plain Text
Title : English
Language : English
Default : No
Forced : No
Menu
00:00:00.000 : en:1. What Have You Gotten Me Into?
00:12:15.318 : en:2. Confidentiality Agreement
00:18:54.175 : en:3. I'm Your Ghost
00:22:56.208 : en:4. Ready To Start?
00:29:43.407 : en:5. Adam Lang Under Suspicion
00:35:27.500 : en:6. You're The Only Guest In The Hotel
00:39:58.187 : en:7. That Makes You An Accomplice
00:47:25.342 : en:8. Clearing Out Mike's Belongings
00:51:50.149 : en:9. Flashlights On The Beach
00:59:14.676 : en:10. The Lead Story
01:07:03.728 : en:11. Bad Idea
01:12:11.911 : en:12. You Have Reached Your Destination
01:19:43.362 : en:13. The Wall Of Ego
01:27:06.263 : en:14. The Last Ferry
01:32:54.235 : en:15. The Hatherton Group
01:41:43.180 : en:16. Working For A War Criminal
01:47:53.384 : en:17. You're The Key Witness
01:56:42.704 : en:18. Something About The Beginnings

x264

x264 [info]: frame I:1245 Avg QP:16.67 size:215166
x264 [info]: frame P:35298 Avg QP:19.66 size: 70664
x264 [info]: frame B:148305 Avg QP:21.60 size: 26450
--
[Профиль] [ЛС]
Показать сообщения:    

Текущее время: Сегодня 09:10

Часовой пояс: GMT



Вы не можете начинать темы
Вы не можете отвечать на сообщения
Вы не можете редактировать свои сообщения
Вы не можете удалять свои сообщения
Вы не можете голосовать в опросах
Вы не можете прикреплять файлы к сообщениям
Вы не можете скачивать файлы