Призрак невесты / Ghost Bride (2013) HDTVRip 1080p

 
Автор Сообщение

sergej644 ®

Пол:

Стаж: 4 года 11 месяцев

Сообщений: 6038

Откуда: Soviet Union



Награды: Нет

Торрент-статистика

Создавать темы 26-Фев-2015 21:11

[Цитировать]

Оригинальное название: Ghost Bride
Название: Призрак невесты
Жанр: фэнтези, триллер
Режиссёр: Дэвид Блит
Год: 2013
В ролях: Йосон Ан, Ребека Палмер, Фиона Фенг, Йен Мун

…Молодой китайский иммигрант - Джейсон Чен оказывается перед выбором между двумя девушками: новозеландкой Скай, в которую он действительно влюблен, и китаянкой Мэй Линг, на которой его хотят поженить родственники, уповая на традиции их семьи. Вскоре он узнает, что проблема не только в столкновении двух различных культур, но и в столкновении двух миров — мира живых и мира мертвых…
Страна: Новая Зеландия
Продолжительность: 01:19:53
Перевод: Профессиональный многоголосый (SDI Media)
Кодек: MPEG-4 (AVC)
Качество: HDTVRip
Видео: 5018 Кбит/с, 1920x1080
Звук: AAC, 2 ch, 192 Кбит/с
Субтитры: Отсутствуют
-

Mediainfo:

Общее
Полное имя : Призрак невесты Ghost Bride (2013) HDTVRip 1080pGhost.Bride.2013.HDTVRip.(1080p).mp4
Формат : MPEG-4
Профиль формата : Base Media
Идентификатор кодека : isom
Размер файла : 2,91 Гбайт
Продолжительность : 1 ч. 19 м.
Общий поток : 5214 Кбит/сек
Программа кодирования : Lavf56.1.100
Видео
Идентификатор : 1
Формат : AVC
Формат/Информация : Advanced Video Codec
Профиль формата : Baseline@L2.0
Параметр CABAC формата : Нет
Параметр ReFrames формата : 1 кадр
Идентификатор кодека : avc1
Идентификатор кодека/Информация : Advanced Video Coding
Продолжительность : 1 ч. 19 м.
Битрейт : 5018 Кбит/сек
Ширина : 1920 пикселей
Высота : 1080 пикселей
Соотношение сторон : 16:9
Режим частоты кадров : Постоянный
Частота кадров : 25,000 кадров/сек
Цветовое пространство : YUV
Субдискретизация насыщенности : 4:2:0
Битовая глубина : 8 бит
Тип развёртки : Прогрессивная
Бит/(Пиксели*Кадры) : 0.097
Размер потока : 2,80 Гбайт (96%)
Аудио
Идентификатор : 2
Формат : AAC
Формат/Информация : Advanced Audio Codec
Профиль формата : LC
Идентификатор кодека : 40
Продолжительность : 1 ч. 19 м.
Вид битрейта : Постоянный
Битрейт : 192 Кбит/сек
Каналы : 2 канала
Расположение каналов : Front: L R
Частота : 48,0 КГц
Метод сжатия : С потерями
Размер потока : 110 Мбайт (4%)
Язык : Russian
- --
[Профиль] [ЛС]
Показать сообщения:    

Текущее время: Сегодня 22:09

Часовой пояс: GMT



Вы не можете начинать темы
Вы не можете отвечать на сообщения
Вы не можете редактировать свои сообщения
Вы не можете удалять свои сообщения
Вы не можете голосовать в опросах
Вы не можете прикреплять файлы к сообщениям
Вы не можете скачивать файлы