Призрак на продажу / Kill Katie Malone (Карлос Рамос мл. / Carlos Ramos Jr.) [2010, США, ужасы, триллер, BDRip] MVO (R5)

 
Автор Сообщение

TorrentFilm ®

Пол:

Стаж: 1 год 11 месяцев

Сообщений: 7741



Награды: Нет

Торрент-статистика

Создавать темы 26-Ноя-2015 00:09

[Цитировать]

Призрак на продажу / Kill Katie Malone- Год выпуска: 2010
Страна: США
Жанр: ужасы, триллер
Продолжительность: 01:31:25
Перевод: Профессиональный (многоголосый, закадровый) R5
Субтитры: нет-Режиссер: Карлос Рамос мл. / Carlos Ramos Jr.
В ролях: Масьела Луша, Стивен Коллетти, Лил Дж, Дин Кэйн, Ник Хоган, Кассандра Джин, Фернанда Ромеро, Сильвия Пэнэкайон, Кэти Таунсенд, Эйнат Туби
О фильме: Студенты колледжа — Джим, Дикси и Джинджер — развлекаясь, покупают на интернет-аукционе… привидение. Они и не подозревают, что это не шутка, и что на самом деле они приобрели дух Кэти Мэлоун, несчастной ирландской служанки, двести лет назад выброшенной хозяином на улицу и погибшей от холода.
Старинная черная деревянная шкатулка приходит друзьям по почте. Следуя инструкции, друзья загадывают желания, но даже после того, как их маленькие мечты исполняются, они не верят, что привидение реально существует. Кэти Мэлоун это не устраивает… Пытаясь угодить своим новым хозяевам, призрак Кэти убивает преподавателя, поставившего Дикси плохую оценку, и отрезает руку девушке, не давшей Джиму расписание. Испугавшись, студенты пытаются избавиться от злобного полтергейста, но сделать это непросто: призрак не собирается покидать свою новую семью и действует так, как сам считает нужным. Убийства продолжаются, и кто знает, когда мстительный дух Кэти Мэлоун утолит свою ярость?-Релиз:
Автор: yaroslaigor
Качество: BDRip (источник: / Blu-Ray Remux [GER] / 1080р)
Формат: AVI
Видео: 704x352 (2.00:1), 23.976 fps, XviD build 65 ~1817 kbps avg, 0.31 bit/pixel
Аудио: 48 kHz, AC3 Dolby Digital, 3/2 (L,C,R,l,r) + LFE ch, ~448 kbps avg
Размер: 1487.41 Mb (1/3 DVD)
Скачать: Семпл-

Кадры из фильма


-

Mi

Формат : AVI
Формат/Информация : Audio Video Interleave
Размер файла : 1,45 Гбайт
Продолжительность : 1 ч. 31 м.
Общий поток : 2275 Кбит/сек
Название фильма : Призрак на продажу / Kill Katie Malone (2010) BDRip
Режиссёр : yaroslaigor
Жанр : ужасы, триллер
Программа кодирования : VirtualDubMod 1.5.10.2 (build 2542/release)
Правообладатель : HQCLUB
Примечание : 30.10.2015
Видео
Идентификатор : 0
Формат : MPEG-4 Visual
Профиль формата : Advanced Simple@L5
Параметр BVOP формата : 1
Параметр QPel формата : Нет
Параметр GMC формата : Без точки перехода
Параметр матрицы формата : Выборочная
Идентификатор кодека : XVID
Идентификатор кодека/Подсказка : XviD
Продолжительность : 1 ч. 31 м.
Битрейт : 1817 Кбит/сек
Ширина : 704 пикселя
Высота : 352 пикселя
Соотношение сторон : 2,000
Частота кадров : 23,976 кадра/сек
Цветовое пространство : YUV
Субдискретизация насыщенности : 4:2:0
Битовая глубина : 8 бит
Тип развёртки : Прогрессивная
Метод сжатия : С потерями
Бит/(Пиксели*Кадры) : 0.306
Размер потока : 1,16 Гбайт (80%)
Библиотека кодирования : XviD 65
Аудио
Идентификатор : 1
Формат : AC-3
Формат/Информация : Audio Coding 3
Расширение режима : CM (complete main)
Параметр Endianness формата : Big
Идентификатор кодека : 2000
Продолжительность : 1 ч. 31 м.
Вид битрейта : Постоянный
Битрейт : 448 Кбит/сек
Каналы : 6 каналов
Расположение каналов : Front: L C R, Side: L R, LFE
Частота : 48,0 КГц
Битовая глубина : 16 бит
Метод сжатия : С потерями
Размер потока : 293 Мбайт (20%)
Выравнивание : Разделение по промежуткам
Продолжительность промежутка : 42 мс. (1,00 видеокадр)
Время предзагрузки промежутка : 500 мс.
-
[Профиль] [ЛС]

Создавать темы 12-Июн-2016 07:53 (спустя 6 месяцев 16 дней)

Топик был перенесен из форума Фильмы 2011 года в форум Фильмы 2010 года
Russian Mafia
 
Показать сообщения:    

Текущее время: Сегодня 14:00

Часовой пояс: GMT



Вы не можете начинать темы
Вы не можете отвечать на сообщения
Вы не можете редактировать свои сообщения
Вы не можете удалять свои сообщения
Вы не можете голосовать в опросах
Вы не можете прикреплять файлы к сообщениям
Вы не можете скачивать файлы