Призрак в доспехах 2.0 / Ghost in the Shell 2.0 (Мамору Осии)[2008, Психология, киберпанк, боевик, BDRip] 1080p

 
Автор Сообщение

sergej644 ®

Пол:

Стаж: 4 года 11 месяцев

Сообщений: 6037

Откуда: Soviet Union



Награды: Нет

Торрент-статистика

Создавать темы 15-Мар-2015 15:57

[Цитировать]

--Призрак в доспехах 2.0 / Ghost in the Shell 2.0
Информация о фильме
Название: Призрак в доспехах 2.0
Оригинальное название: Ghost in the Shell 2.0
Год выхода: 2008
Жанр: Психология, киберпанк, боевик
Режиссер: Мамору Осии
В ролях: Ацуко Танака (Мотоко Кусанаги), Акио Оцука (Бато), Иэмаса Каюми (Кукловод), Коити Ямадэра (Тогуса), Тамио Оки (Арамаки), Ютака Накано (Исикава), Тессё Гэнда (Накамура), Намаки Масакадзу (доктор Уиллис), Мицуру Миямото (Мидзуо Дайта), Маая Сакамото (молодая Мотоко), Синдзи Огава (дипломат), Сигэру Тиба (мусорщик), Кадзухиро Ямадзи (мусорщик), Масато Яманоути (иностранный министр), Юдзи Уэда
О фильме:
К 2029 году благодаря повсеместно распространившимся компьютерным сетям и кибер-технологиям практически все люди вживили себе разнообразные нейронные имплантаты. Но кибер-технологии принесли и новую опасность для человека: стал возможным так называемый «взлом мозга» и ряд других преступлений, связанных непосредственно с ним.
Давно разыскиваемый хакер, которого прозвали Кукловодом, начинает вмешиваться в политику, и тогда «9-й Отдел» Министерства Общественной безопасности, оснащённый по последнему слову техники, получает приказ расследовать это дело и остановить Кукловода. В погоне за ним возникает вопрос: что делает человека человеком и кто такой Кукловод в этом мире, где граница между человеком и машиной почти незаметна?

Страна: Япония
Студия: Production I.G
Продолжительность: 01:23:22
Перевод: Профессиональный (двухголосый)
Файл
Кодек: MPEG4 AVC
Качество: BDRip 1080p
Видео: 1920x1080, 10 Mbit/s, 23,976 fps
Звук: AC3, 448 Kbit/s, 48 KHz, Stereo, Russian [Двухголосый Закадровый, Гланц, Королёва];
AC3, 448 Kbit/s, 48 KHz, Stereo, Japanese
Субтитры: Нет

MediaInfo

Общее
Уникальный идентификатор : 192445057770496174935925630775586817926 (0x90C791E7A679D309AE523012F3018786)
Полное имя : Ghost in the Shell 2.0.mkv
Формат : Matroska
Версия формата : Version 4 / Version 2
Размер файла : 6,35 Гбайт
Продолжительность : 1 ч. 23 м.
Общий поток : 10,9 Мбит/сек
Дата кодирования : UTC 2015-03-15 10:04:11
Программа кодирования : mkvmerge v7.5.0 ('Glass Culture') 64bit built on Jan 4 2015 16:48:44
Библиотека кодирования : Lavf55.12.0
Видео
Идентификатор : 1
Формат : AVC
Формат/Информация : Advanced Video Codec
Профиль формата : High@L4.1
Параметр CABAC формата : Да
Параметр ReFrames формата : 4 кадра
Идентификатор кодека : V_MPEG4/ISO/AVC
Продолжительность : 1 ч. 23 м.
Битрейт : 10000 Кбит/сек
Ширина : 1920 пикселей
Высота : 1080 пикселей
Соотношение сторон : 16:9
Режим частоты кадров : Постоянный
Частота кадров : 23,976 кадра/сек
Цветовое пространство : YUV
Субдискретизация насыщенности : 4:2:0
Битовая глубина : 8 бит
Тип развёртки : Прогрессивная
Бит/(Пиксели*Кадры) : 0.201
Размер потока : 5,70 Гбайт (90%)
Библиотека кодирования : x264 core 142 r2479 dd79a61
Настройки программы : cabac=1 / ref=1 / deblock=1:0:0 / analyse=0x3:0x113 / me=hex / subme=2 / psy=1 / psy_rd=1.00:0.00 / mixed_ref=0 / me_range=16 / chroma_me=1 / trellis=0 / 8x8dct=1 / cqm=0 / deadzone=21,11 / fast_pskip=1 / chroma_qp_offset=0 / threads=6 / lookahead_threads=2 / sliced_threads=0 / nr=0 / decimate=1 / interlaced=0 / bluray_compat=0 / constrained_intra=0 / bframes=3 / b_pyramid=2 / b_adapt=1 / b_bias=0 / direct=1 / weightb=1 / open_gop=0 / weightp=1 / keyint=240 / keyint_min=24 / scenecut=40 / intra_refresh=0 / rc_lookahead=10 / rc=2pass / mbtree=1 / bitrate=10000 / ratetol=1.0 / qcomp=0.60 / qpmin=0 / qpmax=69 / qpstep=4 / cplxblur=20.0 / qblur=0.5 / vbv_maxrate=62500 / vbv_bufsize=78125 / nal_hrd=none / filler=0 / ip_ratio=1.40 / aq=1:1.00
Default : Да
Forced : Нет
Основные цвета : BT.709
Характеристики трансфера : BT.709
Коэффициенты матрицы : BT.709
colour_range : Limited
DURATION : 01:23:21.998000000
NUMBER_OF_FRAMES : 119928
NUMBER_OF_BYTES : 6254514803
_STATISTICS_WRITING_APP : mkvmerge v7.5.0 ('Glass Culture') 64bit built on Jan 4 2015 16:48:44
_STATISTICS_WRITING_DATE_UTC : 2015-03-15 10:04:11
_STATISTICS_TAGS : BPS DURATION NUMBER_OF_FRAMES NUMBER_OF_BYTES
Аудио #1
Идентификатор : 2
Формат : AC-3
Формат/Информация : Audio Coding 3
Расширение режима : CM (complete main)
Параметр Endianness формата : Big
Идентификатор кодека : A_AC3
Продолжительность : 1 ч. 23 м.
Вид битрейта : Постоянный
Битрейт : 448 Кбит/сек
Каналы : 2 канала
Расположение каналов : Front: L R
Частота : 48,0 КГц
Битовая глубина : 16 бит
Метод сжатия : С потерями
Задержка видео : -5 мс.
Размер потока : 267 Мбайт (4%)
Заголовок : Russian
Язык : Russian
Default : Да
Forced : Нет
DURATION : 01:23:21.984000000
NUMBER_OF_FRAMES : 156312
NUMBER_OF_BYTES : 280111104
_STATISTICS_WRITING_APP : mkvmerge v7.5.0 ('Glass Culture') 64bit built on Jan 4 2015 16:48:44
_STATISTICS_WRITING_DATE_UTC : 2015-03-15 10:04:11
_STATISTICS_TAGS : BPS DURATION NUMBER_OF_FRAMES NUMBER_OF_BYTES
Аудио #2
Идентификатор : 3
Формат : AC-3
Формат/Информация : Audio Coding 3
Расширение режима : CM (complete main)
Параметр Endianness формата : Big
Идентификатор кодека : A_AC3
Продолжительность : 1 ч. 23 м.
Вид битрейта : Постоянный
Битрейт : 448 Кбит/сек
Каналы : 2 канала
Расположение каналов : Front: L R
Частота : 48,0 КГц
Битовая глубина : 16 бит
Метод сжатия : С потерями
Задержка видео : -5 мс.
Размер потока : 267 Мбайт (4%)
Заголовок : Japanese
Язык : Japanese
Default : Нет
Forced : Нет
DURATION : 01:23:21.984000000
NUMBER_OF_FRAMES : 156312
NUMBER_OF_BYTES : 280111104
_STATISTICS_WRITING_APP : mkvmerge v7.5.0 ('Glass Culture') 64bit built on Jan 4 2015 16:48:44
_STATISTICS_WRITING_DATE_UTC : 2015-03-15 10:04:11
_STATISTICS_TAGS : BPS DURATION NUMBER_OF_FRAMES NUMBER_OF_BYTES

Скриншоты

[Профиль] [ЛС]
Показать сообщения:    

Текущее время: Сегодня 15:57

Часовой пояс: GMT



Вы не можете начинать темы
Вы не можете отвечать на сообщения
Вы не можете редактировать свои сообщения
Вы не можете удалять свои сообщения
Вы не можете голосовать в опросах
Вы не можете прикреплять файлы к сообщениям
Вы не можете скачивать файлы