Призраки чрева / Ngok toi (2010) BDRip 1080p | L1

 
Автор Сообщение

BOSS ®

Пол:

Стаж: 3 года

Сообщений: 7554

Откуда: ODESSA



Награды: 22 (Подробнее)

Mega Seeder 5 (Количество: 1) Mega Seeder 3 (Количество: 1) Top Keeper 3 (Количество: 1)
Торрент-статистика

Создавать темы 07-Авг-2017 11:33

[Цитировать]

Название: Призраки чрева
Оригинальное название: Ngok toi
Год выхода: 2010
Страна: Гонконг
Студия: Point of View Movie Productions
Продолжительность: 01:28:24
Жанр: ужасы
Режиссер: Дэннис Ло
В ролях: Крисси Чау, Кони Луи, Лам Сует, Хейли Чан, Джо Кук, Чи-Вай Лай, Дада Ло, Ян Пуи, Мэгги Сиу, ...
Перевод:
- Любительский (одноголосый, закадровый) den904
- Субтитры
О фильме: В больнице девушку везут в операционную, у неё уже второй выкидыш. Девушка выживает, а вот младенец нет. Это повторяется уже второй год подряд. Мистическим образом ДНК зародышей оказываются идентичными… Сейчас Винни Шум на третьем месяце беременности и её преследуют странные видения. Станет ли она вместилищем для призрака в этот раз?…

Кодек: x264
Качество: BDRip 1080p
Видео: 1920x1036, 10000 kbps, 23,976 fps
Аудио #1: AC-3, 2 ch, 192 kbps (Rus) - VO den904
Аудио #2: AC-3, 2 ch, 192 kbps (Eng)
Субтитры: Русские, Китайские, Английские

Дополнительная информация

За исходник спасибо - 18

MediaInfo

x264 [info]: frame I:708 Avg QP: 8.72 size:248070
x264 [info]: frame P:26779 Avg QP:12.11 size:110028
x264 [info]: frame B:99831 Avg QP:13.72 size: 35050
x264 [info]: consecutive B-frames: 1.9% 2.2% 11.1% 6.8% 8.4% 67.7% 0.9% 0.1% 0.2% 0.1% 0.5%
Общее
Уникальный идентификатор : 219202751091634412561351078795990001528 (0xA4E8EA0A7307025C8771475F18CBE778)
Полное имя : Призраки чрева (Ngok toi) 2010 BDRip 1080p.mkv
Формат : Matroska
Версия формата : Version 2
Размер файла : 6,41 Гбайт
Продолжительность : 1 ч. 28 м.
Общий поток : 10,4 Мбит/сек
Дата кодирования : UTC 2017-08-07 09:50:09
Программа кодирования : mkvmerge v4.0.0 ('The Stars were mine') сборка от Jun 6 2010 16:18:42
Библиотека кодирования : libebml v1.0.0 + libmatroska v1.0.0
Видео
Идентификатор : 1
Формат : AVC
Формат/Информация : Advanced Video Codec
Профиль формата : High@L4.1
Параметр CABAC формата : Да
Параметр ReFrames формата : 4 кадра
Идентификатор кодека : V_MPEG4/ISO/AVC
Продолжительность : 1 ч. 28 м.
Битрейт : 10000 Кбит/сек
Ширина : 1920 пикселей
Высота : 1036 пикселей
Соотношение сторон : 1,85:1
Режим частоты кадров : Постоянный
Частота кадров : 24,000 кадра/сек
Цветовое пространство : YUV
Субдискретизация насыщенности : 4:2:0
Битовая глубина : 8 бит
Тип развёртки : Прогрессивная
Бит/(Пиксели*Кадры) : 0.209
Размер потока : 6,04 Гбайт (94%)
Библиотека кодирования : x264 core 146 r2538 121396c
Настройки программы : cabac=1 / ref=4 / deblock=1:-3:-3 / analyse=0x3:0x133 / me=umh / subme=11 / psy=1 / psy_rd=1.00:0.00 / mixed_ref=1 / me_range=32 / chroma_me=1 / trellis=2 / 8x8dct=1 / cqm=0 / deadzone=21,11 / fast_pskip=0 / chroma_qp_offset=-2 / threads=12 / lookahead_threads=2 / sliced_threads=0 / nr=0 / decimate=0 / interlaced=0 / bluray_compat=0 / constrained_intra=0 / bframes=10 / b_pyramid=2 / b_adapt=2 / b_bias=0 / direct=3 / weightb=1 / open_gop=0 / weightp=2 / keyint=240 / keyint_min=23 / scenecut=40 / intra_refresh=0 / rc=2pass / mbtree=0 / bitrate=10000 / ratetol=1.0 / qcomp=0.60 / qpmin=0 / qpmax=69 / qpstep=4 / cplxblur=20.0 / qblur=0.5 / ip_ratio=1.40 / pb_ratio=1.30 / aq=1:0.80
Язык : Chinese
Default : Нет
Forced : Нет
Аудио #1
Идентификатор : 2
Формат : AC-3
Формат/Информация : Audio Coding 3
Расширение режима : CM (complete main)
Параметр Endianness формата : Big
Идентификатор кодека : A_AC3
Продолжительность : 1 ч. 28 м.
Вид битрейта : Постоянный
Битрейт : 192 Кбит/сек
Каналы : 2 канала
Расположение каналов : Front: L R
Частота : 48,0 КГц
Частота кадров : 31,250 кадров/сек (1536 spf)
Метод сжатия : С потерями
Размер потока : 121 Мбайт (2%)
Заголовок : VO den904
Язык : Russian
Default : Нет
Forced : Нет
Аудио #2
Идентификатор : 3
Формат : AC-3
Формат/Информация : Audio Coding 3
Расширение режима : CM (complete main)
Параметр Endianness формата : Big
Идентификатор кодека : A_AC3
Продолжительность : 1 ч. 28 м.
Вид битрейта : Постоянный
Битрейт : 192 Кбит/сек
Каналы : 2 канала
Расположение каналов : Front: L R
Частота : 48,0 КГц
Частота кадров : 31,250 кадров/сек (1536 spf)
Метод сжатия : С потерями
Размер потока : 121 Мбайт (2%)
Язык : Chinese
Default : Нет
Forced : Нет
Текст #1
Идентификатор : 4
Формат : UTF-8
Идентификатор кодека : S_TEXT/UTF8
Идентификатор кодека/Информация : UTF-8 Plain Text
Язык : Russian
Default : Нет
Forced : Нет
Текст #2
Идентификатор : 5
Формат : UTF-8
Идентификатор кодека : S_TEXT/UTF8
Идентификатор кодека/Информация : UTF-8 Plain Text
Заголовок : Cantonese
Язык : Chinese
Default : Нет
Forced : Нет
Текст #3
Идентификатор : 6
Формат : UTF-8
Идентификатор кодека : S_TEXT/UTF8
Идентификатор кодека/Информация : UTF-8 Plain Text
Заголовок : Mandarin
Язык : Chinese
Default : Нет
Forced : Нет
Текст #4
Идентификатор : 7
Формат : UTF-8
Идентификатор кодека : S_TEXT/UTF8
Идентификатор кодека/Информация : UTF-8 Plain Text
Язык : English
Default : Нет
Forced : Нет

[Профиль] [ЛС]
Кто просматривает тему:

Форум Тема Автор Размер
BBC BBC: Мир природы. Андские медведи – призраки леса / The Natural World. Spectacled Bears [сезон 27 эпизод 13] (Fergus Beeley, Angel Garcia-Rojo) [2008 г., Документальный, научно-популярный,... skorpionN 1.49 GB
Фильмы (HD Rips | 720p, 1080p) Cнайпер: воин призрак / Sniper: Ghost Shooter (2016) WEB-DL 720p | iTunes достали все 3.11 GB
Фильмы 2016 года Cнайпер: воин призрак / Sniper: Ghost Shooter (2016) WEB-DLRip | iTunes достали все 1.46 GB
Фильмы (HD Rips | 720p, 1080p) Cпайпер: воин призрак / Sniper: Ghost Shooter (2016) WEB-DL 1080p | iTunes достали все 3.83 GB
S.T.A.L.K.E.R. S.T.A.L.K.E.R.: Call of Pripyat - Призраки прошлого v1.6.02 (2015/RUS/RePack by SeregA-Lus) (2015) (SoR — TeaM) (ENG+RUS) [RePack] Richi Keeper 2.86 GB
Фантастика и фэнтези Белянин Андрей, Черная Галина - Детектив из Мокрых Псов 3. Отель «У призрака» (2015) MP3 Swager 419 MB
Фильмы 2011 года Возвращение в дом ночных призраков / Return to House on Haunted Hill (Виктор Гарсия / Víctor García) [2007, США, ужасы, триллер, BDRip] MVO (ТНТ) + Original Eng TorrentFilm 1.45 GB
Индийское кино Возвращение призрака / Bhoot Returns / ИНДИЯ (Рам Гопал Варма) [2012 г., Ужасы, DVDRip] Magnat 746 MB
Показать сообщения:    

Текущее время: Сегодня 11:10

Часовой пояс: GMT



Вы не можете начинать темы
Вы не можете отвечать на сообщения
Вы не можете редактировать свои сообщения
Вы не можете удалять свои сообщения
Вы не можете голосовать в опросах
Вы не можете прикреплять файлы к сообщениям
Вы не можете скачивать файлы