Призраки: Лучшая участь / Spooks: The Greater Good (2015) BDRip 720p | L

 
Автор Сообщение

достали все ®

Пол:

Стаж: 1 год 8 месяцев

Сообщений: 6600



Награды: 12 (Подробнее)

Top Releaser 3 (Количество: 1) Mega Releaser 2 (Количество: 1) За внесенный вклад в развитие сайта (Количество: 1)
Торрент-статистика

Создавать темы 19-Ноя-2015 04:00

[Цитировать]

Информация о фильме
Название: Призраки: Лучшая участь
Оригинальное название: Spooks: The Greater Good
Год выхода: 2015
Жанр: триллер, драма
Режиссер: Бхарат Наллури
В ролях: Кит Харингтон, Таппенс Мидлтон, Лара Пулвер, Дэвид Хэрвуд, Элиес Габел, Дженнифер Или, Питер Фёрт, Элинор Мацуура, Тим МакИннерни, Оливер Гилберт
О фильме: Когда террорист убегает из-под опеки в ходе передачи, Уилл Кромби должен объединиться с опальным шефом разведки MI5 Гарри Пирсом, чтобы разыскать его перед неминуемой террористической атакой на Лондон.

Выпущено: Великобритания / Creative England, Isle of Man Film Ltd., Kudos Film and Television, Pinewood Pictures, Shine Pictures, Shotz Fiction Film
Продолжительность: 01:43:47
Озвучивание: Любительское (многоголосное) [студия GreenРай Studio]
Роли озвучивали: Баира Диарра, Андрей Циклис, Андрей Зверев, Алексей Ерёмин, Роман Уваров, Антон Емельянов, ЭФСаунд
Перевод: Дарья Булгакова
Файл
Формат: MKV
Качество: BDRip 720p [CRiME]
Видео: MPEG-4 AVC, 5987 kb/s, 1280x536
Аудио: Russian / English: AC3, 640 kb/s (6 ch)

MI

Format : Matroska
Format version : Version 4 / Version 2
File size : 5.38 GiB
Duration : 1h 43mn
Overall bit rate : 7 414 Kbps
Encoded date : UTC 2015-11-18 17:04:02
Writing application : mkvmerge v8.3.0 ('Over the Horizon') 64bit
Writing library : libebml v1.3.1 + libmatroska v1.4.2
Video
ID : 1
Format : AVC
Format/Info : Advanced Video Codec
Format profile : High@L4.1
Format settings, CABAC : Yes
Format settings, ReFrames : 12 frames
Codec ID : V_MPEG4/ISO/AVC
Duration : 1h 43mn
Bit rate : 5 987 Kbps
Width : 1 280 pixels
Height : 536 pixels
Display aspect ratio : 2.40:1
Frame rate mode : Constant
Frame rate : 24.000 fps
Color space : YUV
Chroma subsampling : 4:2:0
Bit depth : 8 bits
Scan type : Progressive
Bits/(Pixel*Frame) : 0.364
Stream size : 4.34 GiB (81%)
Title : ENCODE CRiME
Writing library : x264 core 148 r2597 e86f3a1
Encoding settings : cabac=1 / ref=12 / deblock=1:-3:-3 / analyse=0x3:0x133 / me=umh / subme=10 / psy=1 / psy_rd=1.00:0.00 / mixed_ref=1 / me_range=32 / chroma_me=1 / trellis=2 / 8x8dct=1 / cqm=0 / deadzone=21,11 / fast_pskip=0 / chroma_qp_offset=-2 / threads=6 / lookahead_threads=1 / sliced_threads=0 / nr=0 / decimate=0 / interlaced=0 / bluray_compat=0 / constrained_intra=0 / bframes=11 / b_pyramid=2 / b_adapt=2 / b_bias=0 / direct=3 / weightb=1 / open_gop=0 / weightp=2 / keyint=250 / keyint_min=24 / scenecut=40 / intra_refresh=0 / rc_lookahead=60 / rc=crf / mbtree=0 / crf=17.8 / qcomp=0.65 / qpmin=0 / qpmax=69 / qpstep=4 / vbv_maxrate=62500 / vbv_bufsize=78125 / crf_max=0.0 / nal_hrd=none / filler=0 / ip_ratio=1.25 / pb_ratio=1.15 / aq=3:0.68 / zones=0,890,crf=16/11696,11788,crf=17/28870,28931,crf=17/8002,8436,crf=17/8612,9043,crf=17/104766,104841,crf=17/143713,149502,crf=22
Language : English
Default : Yes
Forced : No
Audio #1
ID : 2
Format : AC-3
Format/Info : Audio Coding 3
Mode extension : CM (complete main)
Format settings, Endianness : Big
Codec ID : A_AC3
Duration : 1h 43mn
Bit rate mode : Constant
Bit rate : 640 Kbps
Channel(s) : 6 channels
Channel positions : Front: L C R, Side: L R, LFE
Sampling rate : 48.0 KHz
Bit depth : 16 bits
Compression mode : Lossy
Stream size : 475 MiB (9%)
Language : Russian
Default : Yes
Forced : Yes
Audio #2
ID : 3
Format : AC-3
Format/Info : Audio Coding 3
Mode extension : CM (complete main)
Format settings, Endianness : Big
Codec ID : A_AC3
Duration : 1h 43mn
Bit rate mode : Constant
Bit rate : 640 Kbps
Channel(s) : 6 channels
Channel positions : Front: L C R, Side: L R, LFE
Sampling rate : 48.0 KHz
Bit depth : 16 bits
Compression mode : Lossy
Delay relative to video : 24ms
Stream size : 475 MiB (9%)
Language : English
Default : No
Forced : No
Menu
00:00:00.000 : en:00:00:00.000
00:08:47.000 : en:00:08:47.000
00:18:01.500 : en:00:18:01.500
00:24:11.000 : en:00:24:11.000
00:33:13.833 : en:00:33:13.833
00:41:35.042 : en:00:41:35.042
00:49:29.708 : en:00:49:29.708
00:58:48.250 : en:00:58:48.250
01:05:15.292 : en:01:05:15.292
01:14:03.708 : en:01:14:03.708
01:21:58.958 : en:01:21:58.958
01:29:28.250 : en:01:29:28.250

Скриншоты

Релиз:


[Профиль] [ЛС]
Показать сообщения:    

Текущее время: Сегодня 15:45

Часовой пояс: GMT



Вы не можете начинать темы
Вы не можете отвечать на сообщения
Вы не можете редактировать свои сообщения
Вы не можете удалять свои сообщения
Вы не можете голосовать в опросах
Вы не можете прикреплять файлы к сообщениям
Вы не можете скачивать файлы