Призраки Гойи / Goya\'s Ghosts (Милош Форман / Milos Forman) [2006, США, Испания, драма, военный, биография, BDRip-AVC] Dub (R5) + 2x AVO (Гаврилов, Алексеев) + Original (Eng) + Subs (Rus, Eng)

 
Автор Сообщение

TorrentFilm ®

Пол:

Стаж: 2 года

Сообщений: 7741



Награды: Нет

Торрент-статистика

Создавать темы 01-Мар-2015 00:01

[Цитировать]

Призраки Гойи / Goya's Ghosts
«Tell me what the truth is»
- Страна: США, Испания
Жанр: драма, военный, биография
Год выпуска: 2006
Продолжительность: 01:53:44-Перевод №1: Профессиональный (дублированный) - R5
Перевод №2: Авторский (одноголосый закадровый) - А.Гаврилов
Перевод №3: Авторский (одноголосый закадровый) - А.Алексеев - отдельно в раздаче
Оригинальная аудиодорожка: English
Cубтитры: Русские (полные), English (full)
Навигация по главам: присутствует - 16 глав-Режиссер: Милош Форман / Milos Forman
В ролях: Хавьер Бардем, Натали Портман, Стеллан Скарсгард, Рэнди Куэйд, Хосе Луис Гомес, Микаэль Лонсдаль, Бланка Портильо, Мэйбл Ривера, Унакс Угальде, Фернандо Тилве-Описание: Инесс, музу знаменитого портретиста Франциско Гойи, инквизиция бросает в темницу. В отчаянии живописец просит о помощи своего друга, священника Лоренцо. Их взаимоотношения подвергаются серьезному испытанию, необратимо меняя судьбы всех троих.-
Download sample-Качество видео: BDRip-AVC | исх. BDRemux 1080p - thx: sandyk
Формат: MKV-Видео: 1 142x618 (1.85:1), 23.976 fps, H.264 ~3 500 kbps avg, 0.199 bit/pixel
Аудио №1: 48.0 kHz, AC3 Dolby Digital, 3/2 (L,C,R,l,r) + LFE ch, ~448 kbps | Профессиональный (дублированный) - R5
Аудио №2: 48.0 kHz, AC3 Dolby Digital, 3/2 (L,C,R,l,r) + LFE ch, ~448 kbps | Авторский (одноголосый закадровый) - А.Гаврилов
Аудио №3: 48.0 kHz, AC3 Dolby Digital, 3/2 (L,C,R,l,r) + LFE ch, ~448 kbps | Авторский (одноголосый закадровый) - А.Алексеев - отдельно в раздаче
Аудио №4: 48.0 kHz, AC3 Dolby Digital, 3/2 (L,C,R,l,r) + LFE ch, ~448 kbps | English
Субтитры №1: Русские (полные) | *.srt
Субтитры №2: English (full) | *.srt-

MediaInfo

General
Unique ID : 202281795992381785652738936943332544667 (0x982E0E8B23F8F1B08FBF99447B0FD09B)
Complete name : D:\Фильмы\Рипы\Goya's Ghosts.2006.BDRip-AVC.eFK tRuAVC\Goya's Ghosts.2006.BDRip-AVC.eFK tRuAVC.mkv
Format : Matroska
Format version : Version 4 / Version 2
File size : 3.82 GiB
Duration : 1h 53mn
Overall bit rate : 4 814 Kbps
Movie name : Призраки Гойи / Goya's Ghosts (2006) - Release for rutracker
Encoded date : UTC 2015-02-25 10:45:22
Writing application : mkvmerge v7.6.0 ('Garden of Dreams') 64bit built on Feb 8 2015 13:04:34
Writing library : libebml v1.3.1 + libmatroska v1.4.2
Attachements : cover.jpg
DURATION : 01:44:25.342000000
NUMBER_OF_FRAMES : 1136
NUMBER_OF_BYTES : 32840
_STATISTICS_WRITING_APP : mkvmerge v7.6.0 ('Garden of Dreams') 64bit built on Feb 8 2015 13:04:34
_STATISTICS_WRITING_DATE_UT : 2015-02-25 10:45:22
_STATISTICS_TAGS : BPS DURATION NUMBER_OF_FRAMES NUMBER_OF_BYTES
Video
ID : 1
Format : AVC
Format/Info : Advanced Video Codec
Format profile : High@L4.1
Format settings, CABAC : Yes
Format settings, ReFrames : 11 frames
Codec ID : V_MPEG4/ISO/AVC
Duration : 1h 53mn
Bit rate : 3 374 Kbps
Width : 1 142 pixels
Height : 618 pixels
Display aspect ratio : 1.85:1
Frame rate mode : Constant
Frame rate : 23.976 fps
Color space : YUV
Chroma subsampling : 4:2:0
Bit depth : 8 bits
Scan type : Progressive
Bits/(Pixel*Frame) : 0.199
Stream size : 2.68 GiB (70%)
Title : eFK tRuAVC
Writing library : x264 core 144 r2525kMod 40bb568
Encoding settings : cabac=1 / ref=11 / deblock=1:-3:-3 / analyse=0x3:0x133 / me=umh / subme=11 / psy=1 / fade_compensate=0.00 / psy_rd=1.15:0.05 / mixed_ref=1 / me_range=32 / chroma_me=1 / trellis=2 / 8x8dct=1 / cqm=0 / deadzone=21,11 / fast_pskip=0 / chroma_qp_offset=-3 / threads=12 / lookahead_threads=3 / sliced_threads=0 / nr=0 / decimate=1 / interlaced=0 / bluray_compat=0 / constrained_intra=0 / fgo=0 / bframes=16 / b_pyramid=2 / b_adapt=2 / b_bias=0 / direct=3 / weightb=1 / open_gop=0 / weightp=2 / keyint=250 / keyint_min=23 / scenecut=40 / intra_refresh=0 / rc_lookahead=60 / rc=crf / mbtree=0 / crf=19.7000 / qcomp=0.65 / qpmin=0 / qpmax=69 / qpstep=4 / vbv_maxrate=50000 / vbv_bufsize=62500 / crf_max=0.0 / nal_hrd=none / filler=0 / ip_ratio=1.40 / pb_ratio=1.30 / aq=3:0.70
Language : English
Default : Yes
Forced : No
Color primaries : BT.709
Transfer characteristics : BT.709
Matrix coefficients : BT.709
Color range : Limited
DURATION : 01:53:44.818000000
NUMBER_OF_FRAMES : 163632
NUMBER_OF_BYTES : 2956988458
_STATISTICS_WRITING_APP : mkvmerge v7.6.0 ('Garden of Dreams') 64bit built on Feb 8 2015 13:04:34
_STATISTICS_WRITING_DATE_UT : 2015-02-25 10:45:22
_STATISTICS_TAGS : BPS DURATION NUMBER_OF_FRAMES NUMBER_OF_BYTES
Audio #1
ID : 2
Format : AC-3
Format/Info : Audio Coding 3
Mode extension : CM (complete main)
Format settings, Endianness : Big
Codec ID : A_AC3
Duration : 1h 53mn
Bit rate mode : Constant
Bit rate : 448 Kbps
Channel(s) : 6 channels
Channel positions : Front: L C R, Side: L R, LFE
Sampling rate : 48.0 KHz
Bit depth : 16 bits
Compression mode : Lossy
Stream size : 364 MiB (9%)
Title : Dub (R5)
Language : Russian
Default : Yes
Forced : No
Audio #2
ID : 3
Format : AC-3
Format/Info : Audio Coding 3
Mode extension : CM (complete main)
Format settings, Endianness : Big
Codec ID : A_AC3
Duration : 1h 53mn
Bit rate mode : Constant
Bit rate : 448 Kbps
Channel(s) : 6 channels
Channel positions : Front: L C R, Side: L R, LFE
Sampling rate : 48.0 KHz
Bit depth : 16 bits
Compression mode : Lossy
Stream size : 364 MiB (9%)
Title : AVO (Гаврилов)
Default : No
Forced : No
Audio #3
ID : 4
Format : AC-3
Format/Info : Audio Coding 3
Mode extension : CM (complete main)
Format settings, Endianness : Big
Codec ID : A_AC3
Duration : 1h 53mn
Bit rate mode : Constant
Bit rate : 448 Kbps
Channel(s) : 6 channels
Channel positions : Front: L C R, Side: L R, LFE
Sampling rate : 48.0 KHz
Bit depth : 16 bits
Compression mode : Lossy
Stream size : 364 MiB (9%)
Language : English
Default : No
Forced : No
Text #1
ID : 5
Format : UTF-8
Codec ID : S_TEXT/UTF8
Codec ID/Info : UTF-8 Plain Text
Title : полные
Language : Russian
Default : No
Forced : No
Text #2
ID : 6
Format : UTF-8
Codec ID : S_TEXT/UTF8
Codec ID/Info : UTF-8 Plain Text
Title : full
Language : English
Default : No
Forced : No
Menu
00:00:00.000 : :Chapter 01
00:05:40.591 : :Chapter 02
00:12:23.910 : :Chapter 03
00:20:32.065 : :Chapter 04
00:28:28.541 : :Chapter 05
00:38:51.913 : :Chapter 06
00:47:19.670 : :Chapter 07
00:55:57.563 : :Chapter 08
01:03:01.445 : :Chapter 09
01:09:31.126 : :Chapter 10
01:17:07.957 : :Chapter 11
01:25:05.184 : :Chapter 12
01:32:42.849 : :Chapter 13
01:36:55.852 : :Chapter 14
01:41:07.353 : :Chapter 15
01:45:44.796 : :Chapter 16

x264 log

x264 [info]: frame I:1294 Avg QP:17.53 size: 93794
x264 [info]: frame P:29264 Avg QP:19.30 size: 35581
x264 [info]: frame B:133074 Avg QP:21.49 size: 13484
x264 [info]: consecutive B-frames: 1.4% 1.0% 4.1% 7.0% 9.9% 56.1% 8.7% 1.3% 2.4% 1.1% 1.6% 2.1% 1.3% 0.7% 0.4% 0.4% 0.7%
x264 [info]: mb I I16..4: 5.8% 84.7% 9.5%
x264 [info]: mb P I16..4: 0.4% 9.1% 0.6% P16..4: 29.4% 36.7% 14.7% 1.6% 0.1% skip: 7.4%
x264 [info]: mb B I16..4: 0.0% 0.7% 0.0% B16..8: 38.5% 19.1% 3.6% direct: 5.5% skip:32.6% L0:46.6% L1:46.9% BI: 6.5%
x264 [info]: 8x8 transform intra:89.2% inter:62.3%
x264 [info]: direct mvs spatial:100.0% temporal:0.0%
x264 [info]: coded y,uvDC,uvAC intra: 90.8% 80.4% 52.3% inter: 32.9% 22.0% 0.8%
x264 [info]: i16 v,h,dc,p: 52% 13% 8% 27%
x264 [info]: i8 v,h,dc,ddl,ddr,vr,hd,vl,hu: 8% 6% 10% 11% 15% 14% 13% 12% 12%
x264 [info]: i4 v,h,dc,ddl,ddr,vr,hd,vl,hu: 10% 7% 5% 9% 16% 16% 13% 12% 12%
x264 [info]: i8c dc,h,v,p: 38% 24% 22% 16%
x264 [info]: Weighted P-Frames: Y:6.0% UV:2.3%
x264 [info]: ref P L0: 41.1% 9.6% 18.8% 7.4% 6.4% 4.5% 4.2% 2.2% 2.1% 1.7% 1.8% 0.2% 0.0%
x264 [info]: ref B L0: 63.2% 14.1% 8.0% 4.3% 3.2% 2.7% 2.1% 1.3% 0.7% 0.3%
x264 [info]: ref B L1: 89.7% 10.3%
x264 [info]: kb/s:3466.16
x264 [total]: encoded 163632 frames, 5.77 fps, 3466.16 kb/s, duration 7:52:28.30

Comparison

Source

Encode
  • Перевод А.Алексеева и А.Гаврилова осуществлен в рамках народного проекта форума e180.ru. Спонсоры Партизан, Al12, Nadoelo, gendalf779.
[Профиль] [ЛС]

Создавать темы 06-Авг-2015 22:42 (спустя 5 месяцев 5 дней)

Топик был перенесен из форума Фильмы до 2014 года в форум Фильмы до 2012 года
sergej644
 
Показать сообщения:    

Текущее время: Сегодня 16:58

Часовой пояс: GMT



Вы не можете начинать темы
Вы не можете отвечать на сообщения
Вы не можете редактировать свои сообщения
Вы не можете удалять свои сообщения
Вы не можете голосовать в опросах
Вы не можете прикреплять файлы к сообщениям
Вы не можете скачивать файлы