Признание / L'Aveu (1970) BDRip 720p | P2

 
Автор Сообщение

Swager ®

Пол:

Стаж: 2 года

Сообщений: 981



Награды: 3 (Подробнее)

Mega Seeder 2 (Количество: 1) Mega Seeder 1 (Количество: 1) Top Releaser 2 (Количество: 1)
Торрент-статистика

Создавать темы 11-Окт-2017 10:54

[Цитировать]

Информация о фильме
Название: Признание
Оригинальное название: L'aveu / The Confession
Год выхода: 1970
Жанр: триллер, драма, история
Режиссер: Коста-Гаврас
В ролях: Ив Монтан, Симона Синьоре, Габриэле Ферцетти, Мишель Витоль, Жан Буиз, Ласло Сабо, Моник Шометт, Ги Мэресс, Марк Эйро, Жерар Дарьё, Жиль Сегаль, Шарль Мулен, Николь Вервиль, Жорж Обер, Андре Селльер, Пьер Делавэл, Вильям Жак, Анри Марто, Мишель Робен, Антуан Витез, Мишель Бон, Марк Бонсегноур, Тьерри Боск
Описание: Антон Людвик — заместитель министра иностранных дел Чехословакии. Он догадывается, что за ним следят. Однажды его арестовывают и помещают в тюрьму в одиночную камеру без объяснения причин.

Страна: Франция, Италия
Продолжительность: 02:19:00
Перевод: Профессиональный (двухголосый закадровый)
Субтитры: русские (на непереведенные места), английские, французские
Оригинальная аудиодорожка: французский
Файл
Качество: BDRip 720p
Видео: 8189 Кбит/сек, NTSC 1194*720 (5:3), 23,976 кадра/сек, AVC
Аудио 1: Русский, 192 Кбит/сек, 48,0 КГц, 2 канала, AC-3
Аудио 2: Французский, 219 Кбит/сек, 48,0 КГц, 1 канал, FLAC

Скриншоты

MediaInfo

Общее
Уникальный идентификатор : 254539296764441352716799855871534335438 (0xBF7E7C40F56B7E5185BAE91E670085CE)
Полное имя : Q:MONARВидеоХудожественные фильмыЗарубежное киноПризнание (1970).mkv
Формат : Matroska
Версия формата : Version 4 / Version 2
Размер файла : 8,35 Гбайт
Продолжительность : 2 ч. 18 м.
Режим общего битрейта : Переменный
Общий поток : 8602 Кбит/сек
Название фильма : L'aveu (1970)
Дата кодирования : UTC 2017-02-08 16:51:31
Программа кодирования : mkvmerge v9.6.0 ('Slave To Your Mind') 64bit
Библиотека кодирования : libebml v1.3.4 + libmatroska v1.4.5
Видео
Идентификатор : 1
Формат : AVC
Формат/Информация : Advanced Video Codec
Профиль формата : High@L4.1
Параметр CABAC формата : Да
Параметр ReFrames формата : 9 кадров
Идентификатор кодека : V_MPEG4/ISO/AVC
Продолжительность : 2 ч. 18 м.
Битрейт : 8189 Кбит/сек
Ширина : 1194 пикселя
Высота : 720 пикселей
Соотношение сторон : 5:3
Режим частоты кадров : Постоянный
Частота кадров : 23,976 (24000/1001) кадра/сек
Цветовое пространство : YUV
Субдискретизация насыщенности : 4:2:0
Битовая глубина : 8 бит
Тип развёртки : Прогрессивная
Бит/(Пиксели*Кадры) : 0.397
Размер потока : 7,95 Гбайт (95%)
Библиотека кодирования : x264 core 146 r0+2586 e393126 t_mod_Custom [8-bit@all X86_64]
Настройки программы : cabac=1 / ref=9 / deblock=1:-3:-3 / analyse=0x3:0x113 / me=umh / subme=10 / psy=1 / fade_compensate=0.00 / psy_rd=1.10:0.00 / mixed_ref=1 / me_range=32 / chroma_me=1 / trellis=2 / 8x8dct=1 / cqm=0 / deadzone=21,11 / fast_pskip=0 / chroma_qp_offset=-2 / threads=12 / lookahead_threads=3 / sliced_threads=0 / nr=0 / decimate=0 / interlaced=0 / bluray_compat=0 / constrained_intra=0 / fgo=0 / bframes=10 / b_pyramid=2 / b_adapt=2 / b_bias=0 / direct=3 / weightb=1 / open_gop=0 / weightp=2 / keyint=240 / keyint_min=23 / scenecut=40 / intra_refresh=0 / rc_lookahead=60 / rc=crf / mbtree=0 / crf=18.8000 / qcomp=0.75 / qpmin=0:0:0 / qpmax=69:69:69 / qpstep=4 / vbv_maxrate=62500 / vbv_bufsize=78125 / crf_max=0.0 / nal_hrd=none / filler=0 / ip_ratio=1.30 / pb_ratio=1.20 / aq=3:0.55 / aq-sensitivity=10.00 / aq-factor=1.00:1.00:1.00 / aq2=1:0.50 / aq2-sensitivity=15.00 / aq2-factor=1.00:1.00:1.00 / aq3=1:[0.45:0.45]:[0.45:0.45]:[0.45:0.45]:[0.45:0.45] / aq3-sensitivity=10.00 / aq3-factor=[1.00:1.00]:[1.00:1.00]:[1.00:1.00] / aq3-boundary=192:64:24
Язык : French
Default : Да
Forced : Нет
Аудио #1
Идентификатор : 2
Формат : AC-3
Формат/Информация : Audio Coding 3
Расширение режима : CM (complete main)
Параметр Endianness формата : Big
Идентификатор кодека : A_AC3
Продолжительность : 2 ч. 18 м.
Вид битрейта : Постоянный
Битрейт : 192 Кбит/сек
Каналы : 2 канала
Расположение каналов : Front: L R
Частота : 48,0 КГц
Частота кадров : 31,250 кадров/сек (1536 spf)
Битовая глубина : 16 бит
Метод сжатия : С потерями
Размер потока : 191 Мбайт (2%)
Заголовок : DVO
Язык : Russian
Default : Да
Forced : Нет
Аудио #2
Идентификатор : 3
Формат : FLAC
Формат/Информация : Free Lossless Audio Codec
Идентификатор кодека : A_FLAC
Продолжительность : 2 ч. 18 м.
Вид битрейта : Переменный
Битрейт : 219 Кбит/сек
Каналы : 1 канал
Расположение каналов : Front: C
Частота : 48,0 КГц
Частота кадров : 11,719 кадров/сек (4096 spf)
Битовая глубина : 16 бит
Размер потока : 217 Мбайт (3%)
Заголовок : original
Библиотека кодирования : libFLAC 1.2.1 (UTC 2007-09-17)
Язык : French
Default : Нет
Forced : Нет
Текст #1
Идентификатор : 4
Формат : UTF-8
Идентификатор кодека : S_TEXT/UTF8
Идентификатор кодека/Информация : UTF-8 Plain Text
Продолжительность : 1 ч. 32 м.
Битрейт : 2 бит/сек
Count of elements : 24
Размер потока : 1,89 Кбайт (0%)
Заголовок : srt
Язык : Russian
Default : Да
Forced : Нет
Текст #2
Идентификатор : 5
Формат : UTF-8
Идентификатор кодека : S_TEXT/UTF8
Идентификатор кодека/Информация : UTF-8 Plain Text
Продолжительность : 2 ч. 16 м.
Битрейт : 54 бит/сек
Count of elements : 1521
Размер потока : 54,8 Кбайт (0%)
Заголовок : srt
Язык : English
Default : Нет
Forced : Нет
Текст #3
Идентификатор : 6
Формат : UTF-8
Идентификатор кодека : S_TEXT/UTF8
Идентификатор кодека/Информация : UTF-8 Plain Text
Продолжительность : 2 ч. 16 м.
Битрейт : 66 бит/сек
Count of elements : 1521
Размер потока : 66,4 Кбайт (0%)
Заголовок : srt
Язык : French
Default : Нет
Forced : Нет
Меню
00:00:00.000 : en:00:00:00.000
00:10:49.315 : en:00:10:49.315
00:19:28.876 : en:00:19:28.876
00:26:07.983 : en:00:26:07.983
00:37:39.841 : en:00:37:39.841
00:49:06.193 : en:00:49:06.193
00:57:58.350 : en:00:57:58.350
01:06:35.867 : en:01:06:35.867
01:16:28.167 : en:01:16:28.167
01:36:02.715 : en:01:36:02.715
01:45:18.687 : en:01:45:18.687
01:56:10.422 : en:01:56:10.422
02:02:13.409 : en:02:02:13.409
02:11:08.486 : en:02:11:08.486
[Профиль] [ЛС]
Показать сообщения:    

Текущее время: Сегодня 19:05

Часовой пояс: GMT



Вы не можете начинать темы
Вы не можете отвечать на сообщения
Вы не можете редактировать свои сообщения
Вы не можете удалять свои сообщения
Вы не можете голосовать в опросах
Вы не можете прикреплять файлы к сообщениям
Вы не можете скачивать файлы