Призвание / The Calling (2014) WEB-DL 720p | iTunes

 
Автор Сообщение

sergej644 ®

Пол:

Стаж: 4 года 11 месяцев

Сообщений: 6041

Откуда: Soviet Union



Награды: Нет

Торрент-статистика

Создавать темы 08-Фев-2015 16:47

[Цитировать]

Информация о фильме
Название: Призвание
Оригинальное название: The Calling
Год выхода: 2014
Жанр: триллер
Режиссер: Джейсон Стоун
В ролях: Сьюзен Сарандон, Джил Беллоуз, Эллен Бёрстин, Тофер Грэйс, Дональд Сазерленд, Кристофер Хейердал, Кристин Бут, Аманда Бругел, Паулино Нюнс, Джейн Моффат
О фильме: Опытный детектив Хейзел Микаллеф начинает расследование убийства пожилой респектабельной дамы и вскоре понимает, что это преступление — лишь одно из звеньев в цепи аналогичных злодеяний, совершенных жестоким серийным маньяком.

Выпущено: США
Продолжительность: 01:48:04
Озвучивание: Профессиональное (многоголосое) [iTunes]
Файл
Формат: MKV
Качество: WEB-DL 720p
Видео: 4111 kb/s, 1280x530
Аудио: Russian / English: AC3, 384 kb/s (6 ch)

Скриншоты


MI

Format                         : Matroska
Format version                 : Version 4 / Version 2
File size                      : 3.76 GiB
Duration                       : 1h 48mn
Overall bit rate               : 4 978 Kbps
Encoded date                   : UTC 2014-09-21 18:22:19
Writing application            : mkvmerge v6.9.1 ('Blue Panther') 64bit built on Apr 18 2014 18:23:38
Writing library                : libebml v1.3.0 + libmatroska v1.4.1
Video
ID                             : 1
Format                         : AVC
Format/Info                    : Advanced Video Codec
Format profile                 : Main@L3.1
Format settings, CABAC         : No
Format settings, ReFrames      : 2 frames
Codec ID                       : V_MPEG4/ISO/AVC
Duration                       : 1h 48mn
Bit rate                       : 4 111 Kbps
Width                          : 1 280 pixels
Height                         : 530 pixels
Display aspect ratio           : 2.40:1
Frame rate                     : 23.976 fps
Color space                    : YUV
Chroma subsampling             : 4:2:0
Bit depth                      : 8 bits
Scan type                      : Progressive
Bits/(Pixel*Frame)             : 0.253
Stream size                    : 3.10 GiB (83%)
Language                       : English
Default                        : Yes
Forced                         : No
Color primaries                : BT.709-5, BT.1361, IEC 61966-2-4, SMPTE RP177
Transfer characteristics       : BT.709-5, BT.1361
Matrix coefficients            : BT.709-5, BT.1361, IEC 61966-2-4 709, SMPTE RP177
Audio #1
ID                             : 2
Format                         : AC-3
Format/Info                    : Audio Coding 3
Mode extension                 : CM (complete main)
Format settings, Endianness    : Big
Codec ID                       : A_AC3
Duration                       : 1h 48mn
Bit rate mode                  : Constant
Bit rate                       : 384 Kbps
Channel(s)                     : 6 channels
Channel positions              : Front: L C R, Side: L R, LFE
Sampling rate                  : 48.0 KHz
Bit depth                      : 16 bits
Compression mode               : Lossy
Stream size                    : 297 MiB (8%)
Language                       : Russian
Default                        : Yes
Forced                         : No
Audio #2
ID                             : 3
Format                         : AC-3
Format/Info                    : Audio Coding 3
Mode extension                 : CM (complete main)
Format settings, Endianness    : Big
Codec ID                       : A_AC3
Duration                       : 1h 48mn
Bit rate mode                  : Constant
Bit rate                       : 384 Kbps
Channel(s)                     : 6 channels
Channel positions              : Front: L C R, Side: L R, LFE
Sampling rate                  : 48.0 KHz
Bit depth                      : 16 bits
Compression mode               : Lossy
Stream size                    : 297 MiB (8%)
Language                       : English
Default                        : No
Forced                         : No
Menu
00:00:00.000                   : en:1
00:07:02.000                   : en:2
00:13:47.000                   : en:3
00:21:38.000                   : en:4
00:28:15.000                   : en:5
00:33:43.000                   : en:6
00:38:54.000                   : en:7
00:43:44.000                   : en:8
00:51:38.000                   : en:9
00:57:01.000                   : en:10
01:01:17.000                   : en:11
01:09:24.000                   : en:12
01:16:15.000                   : en:13
01:23:03.000                   : en:14
01:29:44.000                   : en:15
01:38:09.000                   : en:16
[Профиль] [ЛС]
Показать сообщения:    

Текущее время: Сегодня 06:05

Часовой пояс: GMT



Вы не можете начинать темы
Вы не можете отвечать на сообщения
Вы не можете редактировать свои сообщения
Вы не можете удалять свои сообщения
Вы не можете голосовать в опросах
Вы не можете прикреплять файлы к сообщениям
Вы не можете скачивать файлы