Призвание / The Calling (Джейсон Стоун / Jason Stone) [2014, США, триллер, WEB-DLRip] VO (Lord32x)

 
Автор Сообщение

reversefile ®

Пол:

Стаж: 4 года 5 месяцев

Сообщений: 842

Откуда: ReverseFile.org



Награды: Нет

Торрент-статистика

Создавать темы 13-Авг-2014 08:54

[Цитировать]

Призвание / The Calling
Страна: США
Жанр: триллер
Год выпуска: 2014
Продолжительность: 01:48:04
Перевод: Одноголосый закадровый Lord32x по субтитрам Janetta
Cубтитры: нет
Оригинальная аудиодорожка: нет
Режиссер: Джейсон Стоун / Jason Stone
В ролях: Сьюзен Сарандон, Джил Беллоуз, Эллен Бёрстин, Тофер Грейс, Дональд Сазерленд, Кристофер Хейердал, Кристин Бут, Аманда Бругел, Паулино Нюнс, Джейн Моффат
Описание: Опытный детектив Хейзел Микаллеф начинает расследование убийства пожилой респектабельной дамы и вскоре понимает, что это преступление — лишь одно из звеньев в цепи аналогичных злодеяний, совершенных жестоким серийным маньяком.
Сэмпл: http://multi-up.com/991938
Качество видео: WEB-DLRip
Формат видео: AVI
Видео: 720x304 (2.37:1), 23.976 fps, XviD build 73 ~1720 kbps avg, 0.33 bit/pixel
Аудио: 48 kHz, AC3 Dolby Digital, 2/0 (L,R) ch, ~192 kbps
Релиз группы: GIPERWAREZ

MediaInfo

General
Complete name : C:\Users\Вика\Desktop\The.Calling.2014.WEB-DLRip.avi
Format : AVI
Format/Info : Audio Video Interleave
File size : 1.45 GiB
Duration : 1h 48mn
Overall bit rate : 1 922 Kbps
Writing application : VirtualDubMod 1.5.10.3 | www.virtualdub-fr.org || (build 2550/release)
Writing library : VirtualDubMod build 2550/release
Video
ID : 0
Format : MPEG-4 Visual
Format profile : Advanced Simple@L5
Format settings, BVOP : Yes
Format settings, QPel : No
Format settings, GMC : No warppoints
Format settings, Matrix : Custom
Codec ID : XVID
Codec ID/Hint : XviD
Duration : 1h 48mn
Bit rate : 1 720 Kbps
Width : 720 pixels
Height : 304 pixels
Display aspect ratio : 2.35:1
Frame rate : 23.976 fps
Color space : YUV
Chroma subsampling : 4:2:0
Bit depth : 8 bits
Scan type : Progressive
Compression mode : Lossy
Bits/(Pixel*Frame) : 0.328
Stream size : 1.30 GiB (90%)
Writing library : XviD 73
Audio
ID : 1
Format : AC-3
Format/Info : Audio Coding 3
Mode extension : CM (complete main)
Format settings, Endianness : Big
Codec ID : 2000
Duration : 1h 48mn
Bit rate mode : Constant
Bit rate : 192 Kbps
Channel count : 2 channels
Channel positions : Front: L R
Sampling rate : 48.0 KHz
Bit depth : 16 bits
Compression mode : Lossy
Delay relative to video : 32ms
Stream size : 148 MiB (10%)
Alignment : Split accross interleaves
Interleave, duration : 42 ms (1.00 video frame)
Interleave, preload duration : 500 ms

Скриншоты

[Профиль] [ЛС]
Кто просматривает тему:

Форум Тема Автор Размер
Фильмы (HD Rips | 720p, 1080p) Призвание / The Calling (2014) WEB-DL 720p | iTunes sergej644 3.76 GB
Показать сообщения:    

Текущее время: Сегодня 05:00

Часовой пояс: GMT



Вы не можете начинать темы
Вы не можете отвечать на сообщения
Вы не можете редактировать свои сообщения
Вы не можете удалять свои сообщения
Вы не можете голосовать в опросах
Вы не можете прикреплять файлы к сообщениям
Вы не можете скачивать файлы