Приезжайте в гости (Леонид Каюков) [1979, мультфильм, короткометражный, DVDRip-AVC]

 
Автор Сообщение

TorrentFilm ®

Пол:

Стаж: 2 года

Сообщений: 7741



Награды: Нет

Торрент-статистика

Создавать темы 20-Дек-2014 02:00

[Цитировать]

Приезжайте в гости
Страна: CCCР
Жанр: мультфильм, короткометражный
Продолжительность: 00:09:16
Год выпуска: 1979
Русские субтитры: нет
Режиссёр: Леонид Каюков
Роли озвучивали: Евгений Леонов, Клара Румянова, Агарь Власова,
Описание: Лесные зверушки приглашают африканского слоненка в гости на новогоднюю ёлку.
Доп. информация:

Раздача ведется с 9 до 24 Киев
Качество: DVDRip
Формат: MKV
Видео: AVC (H.264), 686x560@732x560 (4:3), 25 fps, 2000kbps
Аудио: 48 kHz, АC-3, 1 ch, ~192 kbps

Подробные технические данные

ОбщееУникальный идентификатор : 210950379739100698749724157197350564745 (0x9EB390B848831D4580BDDAF179737389)Полное имя : D:\Мультфильмы\Приезжайте в гости (1979).mkvФормат : MatroskaВерсия формата : Version 4 / Version 2Размер файла : 146 МбайтПродолжительность : 9 м. 16 с.Общий поток : 2197 Кбит/секДата кодирования : UTC 2014-11-22 21:36:08Программа кодирования : mkvmerge v7.0.0 ('Where We Going') 32bit built on Jun 9 2014 15:08:34Библиотека кодирования : libebml v1.3.0 + libmatroska v1.4.1DURATION : 00:09:16.480000000NUMBER_OF_FRAMES : 17390NUMBER_OF_BYTES : 13355520_STATISTICS_WRITING_APP : mkvmerge v7.0.0 ('Where We Going') 32bit built on Jun 9 2014 15:08:34_STATISTICS_WRITING_DATE_UTC : 2014-11-22 21:36:08_STATISTICS_TAGS : BPS DURATION NUMBER_OF_FRAMES NUMBER_OF_BYTES
ВидеоИдентификатор : 1Формат : AVCФормат/Информация : Advanced Video CodecПрофиль формата : High@L4.1Параметр CABAC формата : ДаПараметр ReFrames формата : 10 кадровИдентификатор кодека : V_MPEG4/ISO/AVCПродолжительность : 9 м. 16 с.Битрейт : 2000 Кбит/секШирина : 686 пикселейВысота : 560 пикселейСоотношение сторон : 4:3Соотношение сторон в оригинале : 4:3Частота кадров : 25,000 кадров/секЦветовое пространство : YUVСубдискретизация насыщенности : 4:2:0Битовая глубина : 8 битТип развёртки : ПрогрессивнаяБит/(Пиксели*Кадры) : 0.208Размер потока : 130 Мбайт (89%)Библиотека кодирования : x264 core 142 r2431 ac76440Настройки программы : cabac=1 / ref=10 / deblock=1:-1:-1 / analyse=0x3:0x113 / me=umh / subme=10 / psy=1 / psy_rd=1.00:0.00 / mixed_ref=1 /me_range=32 / chroma_me=1 / trellis=2 / 8x8dct=1 / cqm=0 / deadzone=21,11 / fast_pskip=0 / chroma_qp_offset=-2 / threads=3 / lookahead_threads=1 /sliced_threads=0 / nr=0 / decimate=1 / interlaced=0 / bluray_compat=0 / constrained_intra=0 / bframes=10 / b_pyramid=2 / b_adapt=2 / b_bias=0 / direct=3 /weightb=1 / open_gop=0 / weightp=2 / keyint=250 / keyint_min=25 / scenecut=40 / intra_refresh=0 / rc_lookahead=50 / rc=2pass / mbtree=1 / bitrate=2000 /ratetol=1.0 / qcomp=0.60 / qpmin=0 / qpmax=69 / qpstep=4 / cplxblur=20.0 / qblur=0.5 / ip_ratio=1.40 / aq=1:1.00Язык : EnglishDefault : ДаForced : НетDURATION : 00:09:16.640000000NUMBER_OF_FRAMES : 13916NUMBER_OF_BYTES : 139378019_STATISTICS_WRITING_APP : mkvmerge v7.0.0 ('Where We Going') 32bit built on Jun 9 2014 15:08:34_STATISTICS_WRITING_DATE_UTC : 2014-11-22 21:36:08_STATISTICS_TAGS : BPS DURATION NUMBER_OF_FRAMES NUMBER_OF_BYTES
АудиоИдентификатор : 2Формат : AC-3Формат/Информация : Audio Coding 3Расширение режима : CM (complete main)Параметр Endianness формата : BigИдентификатор кодека : A_AC3Продолжительность : 9 м. 16 с.Вид битрейта : ПостоянныйБитрейт : 192 Кбит/секКаналы : 1 каналРасположение каналов : Front: CЧастота : 48,0 КГцБитовая глубина : 16 битМетод сжатия : С потерямиРазмер потока : 12,7 Мбайт (9%)Default : ДаForced : Нет

Скриншоты

[Профиль] [ЛС]
Кто просматривает тему:

Форум Тема Автор Размер
R.G.TorrentFilm Video Приезжие / The Out-of-Towners (Сэм Уайзман) [1999 г., комедия, WEB-DLRip] [MVO, AVO] Bathory 2.19 GB
Показать сообщения:    

Текущее время: Сегодня 17:42

Часовой пояс: GMT



Вы не можете начинать темы
Вы не можете отвечать на сообщения
Вы не можете редактировать свои сообщения
Вы не можете удалять свои сообщения
Вы не можете голосовать в опросах
Вы не можете прикреплять файлы к сообщениям
Вы не можете скачивать файлы