Придорожная закусочная / Road House (Роуди Херрингто) [1989 г., боевик, триллер, BDRip-AVC] [MVO (СТС)]

 
Автор Сообщение

Bathory ®

Пол:

Стаж: 1 год 9 месяцев

Сообщений: 320



Награды: 3 (Подробнее)

За внесенный вклад в развитие сайта (Количество: 1) Друг (Количество: 1) Girls (Количество: 1)
Торрент-статистика

Создавать темы 06-Авг-2017 16:22

[Цитировать]

Придорожная закусочная / Road House- Информация о фильме
Название: Придорожная закусочная / Придорожное заведение / Дом у дороги
Оригинальное название: Road House
Год выхода: 1989
Жанр: боевик, триллер
Режиссер: Роуди Херрингтон
В ролях: Патрик Суэйзи, Келли Линч, Сэм Эллиотт, Бен Газзара, Маршалл Р. Тиг, Джули Майклс, Ред Уэст, Саншайн Паркер, Джефф Хили, Кевин Тай
О фильме:
Далтон — легендарный вышибала, который прибывает в Джаспер, штат Миссури, с определённой целью: восстановить порядок в небезопасном баре «Двойная порция».
По мере того, как он избавляет бар от головорезов, хулиганов и наёмных убийц, крепчает гнев их работодателя — печально известного рэкетира Брэда Уэсли. Город живёт в страхе перед Уэсли, но Далтон готов действовать.

Страна: США
Студия: Silver Pictures, Star Partners II Ltd.
Продолжительность: 01:54:09
Перевод: Профессиональный (многоголосый закадровый) [СТС]
Файл
Кодек: AVC
Качество: BDRip-AVC
Видео: 768x328, 847 kbps, 23,976 fps, 0,140 Bits/(Pixel*Frame)
Звук: AAC, 48 kHz, 2 ch, 64 kbps
Субтитры: русские, английские

MI

Общее
Unique ID : 193437322447521400150601152229383330382 (0x9186AC54A1B648468737D8F0AFEBDA4E)
Complete name : D:\Road.House.1989.BDRip-AVC.MegaPeer.mkv
Format : Matroska
Format version : Version 4 / Version 2
File size : 746 Мбайт
Duration : 1 ч. 54 м.
Overall bit rate : 913 Кбит/сек
Encoded date : UTC 2017-08-06 16:06:42
Writing application : mkvmerge v14.0.0 ('Flow') 64bit
Writing library : libebml v1.3.4 + libmatroska v1.4.5
Видео
ID : 1
Format : AVC
Format/Info : Advanced Video Codec
Format profile : High@L4.1
Format settings, CABAC : Да
Format settings, ReFrames : 12 кадров
Codec ID : V_MPEG4/ISO/AVC
Duration : 1 ч. 54 м.
Bit rate : 847 Кбит/сек
Width : 768 пикселей
Height : 328 пикселей
Display aspect ratio : 2,35:1
Frame rate mode : Постоянный
Frame rate : 23,976 (24000/1001) кадра/сек
Color space : YUV
Chroma subsampling : 4:2:0
Bit depth : 8 бит
Scan type : Прогрессивная
Bits/(Pixel*Frame) : 0.140
Stream size : 692 Мбайт (93%)
Writing library : x264 core 152 r2851 ba24899
Encoding settings : cabac=1 / ref=12 / deblock=1:-3:-2 / analyse=0x3:0x133 / me=umh / subme=11 / psy=1 / psy_rd=1.05:0.15 / mixed_ref=1 / me_range=32 / chroma_me=1 / trellis=2 / 8x8dct=1 / cqm=0 / deadzone=21,11 / fast_pskip=0 / chroma_qp_offset=-3 / threads=10 / lookahead_threads=2 / sliced_threads=0 / nr=0 / decimate=0 / interlaced=0 / bluray_compat=0 / constrained_intra=0 / bframes=14 / b_pyramid=2 / b_adapt=2 / b_bias=0 / direct=3 / weightb=1 / open_gop=0 / weightp=2 / keyint=240 / keyint_min=23 / scenecut=0 / intra_refresh=0 / rc_lookahead=60 / rc=2pass / mbtree=1 / bitrate=847 / ratetol=1.0 / qcomp=0.60 / qpmin=0 / qpmax=51 / qpstep=4 / cplxblur=15.0 / qblur=0.5 / vbv_maxrate=50000 / vbv_bufsize=62500 / nal_hrd=none / filler=0 / ip_ratio=1.40 / aq=1:1.00
Default : Да
Forced : Нет
Аудио
ID : 2
Format : AAC
Format/Info : Advanced Audio Codec
Format profile : HE-AAC / LC
Codec ID : A_AAC
Duration : 1 ч. 54 м.
Bit rate : 64,0 Кбит/сек
Channel(s) : 2 канала
Channel positions : Front: L R
Sampling rate : 48,0 КГц / 24,0 КГц
Frame rate : 23,438 кадра/сек (1024 spf)
Compression mode : С потерями
Delay relative to video : 31 мс.
Stream size : 52,3 Мбайт (7%)
Language : Russian
Default : Да
Forced : Нет
Текст #1
ID : 3
Format : UTF-8
Codec ID : S_TEXT/UTF8
Codec ID/Info : UTF-8 Plain Text
Duration : 1 ч. 48 м.
Bit rate : 51 бит/сек
Count of elements : 800
Stream size : 40,8 Кбайт (0%)
Language : Russian
Default : Да
Forced : Нет
Текст #2
ID : 4
Format : UTF-8
Codec ID : S_TEXT/UTF8
Codec ID/Info : UTF-8 Plain Text
Duration : 1 ч. 48 м.
Bit rate : 34 бит/сек
Count of elements : 1016
Stream size : 27,7 Кбайт (0%)
Language : English
Default : Нет
Forced : Нет
Меню
00:00:00.000 : :Chapter 01
00:04:10.291 : :Chapter 02
00:06:23.383 : :Chapter 03
00:09:46.669 : :Chapter 04
00:12:36.505 : :Chapter 05
00:16:24.942 : :Chapter 06
00:21:58.650 : :Chapter 07
00:25:43.166 : :Chapter 08
00:29:46.701 : :Chapter 09
00:32:23.066 : :Chapter 10
00:36:41.824 : :Chapter 11
00:39:13.184 : :Chapter 12
00:42:06.565 : :Chapter 13
00:46:01.925 : :Chapter 14
00:47:46.738 : :Chapter 15
00:51:03.018 : :Chapter 16
00:53:56.107 : :Chapter 17
00:57:45.336 : :Chapter 18
00:59:41.703 : :Chapter 19
01:06:28.067 : :Chapter 20
01:10:56.585 : :Chapter 21
01:15:47.292 : :Chapter 22
01:23:44.936 : :Chapter 23
01:29:25.985 : :Chapter 24
01:35:48.743 : :Chapter 25
01:40:42.494 : :Chapter 26
01:44:04.279 : :Chapter 27
01:49:24.724 : :Chapter 28
01:54:09.676 : :Chapter 29

Скриншоты

Релиз:
[Профиль] [ЛС]
Показать сообщения:    

Текущее время: Сегодня 20:53

Часовой пояс: GMT



Вы не можете начинать темы
Вы не можете отвечать на сообщения
Вы не можете редактировать свои сообщения
Вы не можете удалять свои сообщения
Вы не можете голосовать в опросах
Вы не можете прикреплять файлы к сообщениям
Вы не можете скачивать файлы