Придорожная закусочная / Road House (1989) BDRip 1080p | P, P2, A

 
Автор Сообщение

Russian Mafia ®

Пол:

Стаж: 1 год 8 месяцев

Сообщений: 4257



Награды: 10 (Подробнее)

Mega Seeder 5 (Количество: 1) Mega Seeder 1 (Количество: 1) Top Releaser 3 (Количество: 1)
Торрент-статистика

Создавать темы 31-Май-2016 19:45

[Цитировать]

Информация о фильме
Название: Придорожная закусочная
Оригинальное название: Road House
Год выпуска: 1989
Страна: США
Жанр: Боевик
Продолжительность: 01:54:10
Перевод: Профессиональный (многоголосый закадровый), СТС
Перевод: Профессиональный (двухголосый закадровый), НТВ
Перевод: Профессиональный (двухголосый закадровый), ОРТ
Перевод: Профессиональный (двухголосый закадровый), SDI Media
Перевод: Профессиональный (двухголосый закадровый), Союз Совенчер
Перевод: Авторский (одноголосый закадровый), А. Гаврилов
Перевод: Авторский (одноголосый закадровый), В. Дохалов
Перевод: Авторский (одноголосый закадровый), В. Володарский
Перевод: Авторский (одноголосый закадровый), М. Яроцкий
Перевод: Авторский (одноголосый закадровый), В. Махонько
Субтитры: Русские, английские
Режиссер: Роуди Херрингтон
В ролях: Патрик Суэйзи, Келли Линч, Сэм Эллиотт, Бен Газзара, Маршалл Р. Тиг, Джули Майклс, Ред Уэст, Саншайн Паркер, Джефф Хили
Описание: Далтон — легендарный вышибала, который прибывает в Джаспер, штат Миссури с определенной целью: восстановить порядок в небезопасном баре Двойная порция.
По мере того, как он избавляет бар от головорезов, хулиганов и наемных убийц, крепчает гнев их работодателя — печально известного рэкетира Брэда Уэсли. Город живет в страхе перед Уэсли, но Далтон готов действовать!

Качество: BDRip 1080p
Формат: MKV
Видео кодек: H264
Аудио кодек: AC3
Видео: MPEG4 Video (H264), 1920x824, 23.976fps, 12.0 Mbps
Аудио #01: Русский: Dolby AC3, 48000 Hz, 6ch, 448 kbps - Многоголосый, СТС
Аудио #02: Русский: Dolby AC3, 48000 Hz, 2ch, 192 kbps - Двухголосый, НТВ
Аудио #03: Русский: Dolby AC3, 48000 Hz, 2ch, 192 kbps - Двухголосый, ОРТ
Аудио #04: Русский: Dolby AC3, 48000 Hz, 2ch, 192 kbps - Двухголосый, SDI Media
Аудио #05: Русский: Dolby AC3, 48000 Hz, 2ch, 192 kbps - Двухголосый, Союз Совенчер
Аудио #06: Русский: Dolby AC3, 48000 Hz, 6ch, 448 kbps - Одноголосый, А.Гаврилов
Аудио #07: Русский: Dolby AC3, 48000 Hz, 2ch, 192 kbps - Одноголосый, В. Дохалов
Аудио #08: Русский: Dolby AC3, 48000 Hz, 2ch, 192 kbps - Одноголосый, В. Володарский
Аудио #09: Русский: Dolby AC3, 48000 Hz, 6ch, 448 kbps - Одноголосый, М. Яроцкий
Аудио #10: Русский: Dolby AC3, 48000 Hz, 2ch, 192 kbps - Одноголосый, В. Махонько
Аудио #11: Английский: Dolby AC3, 48000 Hz, 6ch, 448 kbps
Формат субтитров: Softsub (SRT)
Сэмпл

MediaInfo:

General
Unique ID : 178940575968959184075094880933274368129 (0x869EB38BD5933DD684635A07F012B881)
Complete name : F:Torrent 21989.Road.House.renta23.mkv
Format : Matroska
Format version : Version 4 / Version 2
File size : 12.1 GiB
Duration : 1h 54mn
Overall bit rate : 15.2 Mbps
Movie name : 1989 Придорожная закусочная / renta23
Encoded date : UTC 2016-05-31 18:33:14
Writing application : mkvmerge v8.3.0 ('Over the Horizon') 64bit
Writing library : libebml v1.3.1 + libmatroska v1.4.2
Video
ID : 1
Format : AVC
Format/Info : Advanced Video Codec
Format profile : High@L4.1
Format settings, CABAC : Yes
Format settings, ReFrames : 5 frames
Codec ID : V_MPEG4/ISO/AVC
Duration : 1h 54mn
Bit rate : 12.0 Mbps
Width : 1 920 pixels
Height : 824 pixels
Display aspect ratio : 2.35:1
Frame rate mode : Constant
Frame rate : 23.976 (24000/1001) fps
Color space : YUV
Chroma subsampling : 4:2:0
Bit depth : 8 bits
Scan type : Progressive
Bits/(Pixel*Frame) : 0.316
Stream size : 9.57 GiB (79%)
Title : 1989 Придорожная закусочная
Writing library : x264 core 146 r2538 121396c
Encoding settings : cabac=1 / ref=5 / deblock=1:-1:-1 / analyse=0x3:0x133 / me=umh / subme=11 / psy=1 / psy_rd=1.07:0.23 / mixed_ref=1 / me_range=32 / chroma_me=1 / trellis=2 / 8x8dct=1 / cqm=0 / deadzone=21,11 / fast_pskip=0 / chroma_qp_offset=-3 / threads=12 / lookahead_threads=3 / sliced_threads=0 / nr=0 / decimate=1 / interlaced=0 / bluray_compat=0 / constrained_intra=0 / bframes=12 / b_pyramid=2 / b_adapt=2 / b_bias=0 / direct=3 / weightb=1 / open_gop=0 / weightp=2 / keyint=250 / keyint_min=23 / scenecut=40 / intra_refresh=0 / rc=2pass / mbtree=0 / bitrate=12000 / ratetol=1.0 / qcomp=0.60 / qpmin=0 / qpmax=69 / qpstep=4 / cplxblur=20.0 / qblur=0.5 / ip_ratio=1.40 / pb_ratio=1.30 / aq=2:1.00
Language : English
Default : Yes
Forced : No
Audio #1
ID : 2
Format : AC-3
Format/Info : Audio Coding 3
Mode extension : CM (complete main)
Format settings, Endianness : Big
Codec ID : A_AC3
Duration : 1h 54mn
Bit rate mode : Constant
Bit rate : 448 Kbps
Channel(s) : 6 channels
Channel positions : Front: L C R, Side: L R, LFE
Sampling rate : 48.0 KHz
Frame rate : 31.250 fps (1536 spf)
Compression mode : Lossy
Stream size : 366 MiB (3%)
Title : Многоголосый, СТС
Language : Russian
Default : Yes
Forced : No
Audio #2
ID : 3
Format : AC-3
Format/Info : Audio Coding 3
Mode extension : CM (complete main)
Format settings, Endianness : Big
Codec ID : A_AC3
Duration : 1h 54mn
Bit rate mode : Constant
Bit rate : 192 Kbps
Channel(s) : 2 channels
Channel positions : Front: L R
Sampling rate : 48.0 KHz
Frame rate : 31.250 fps (1536 spf)
Compression mode : Lossy
Stream size : 157 MiB (1%)
Title : Двухголосый, НТВ
Language : Russian
Default : No
Forced : No
Audio #3
ID : 4
Format : AC-3
Format/Info : Audio Coding 3
Mode extension : CM (complete main)
Format settings, Endianness : Big
Codec ID : A_AC3
Duration : 1h 54mn
Bit rate mode : Constant
Bit rate : 192 Kbps
Channel(s) : 2 channels
Channel positions : Front: L R
Sampling rate : 48.0 KHz
Frame rate : 31.250 fps (1536 spf)
Compression mode : Lossy
Stream size : 157 MiB (1%)
Title : Двухголосый, ОРТ
Language : Russian
Default : No
Forced : No
Audio #4
ID : 5
Format : AC-3
Format/Info : Audio Coding 3
Mode extension : CM (complete main)
Format settings, Endianness : Big
Codec ID : A_AC3
Duration : 1h 54mn
Bit rate mode : Constant
Bit rate : 192 Kbps
Channel(s) : 2 channels
Channel positions : Front: L R
Sampling rate : 48.0 KHz
Frame rate : 31.250 fps (1536 spf)
Compression mode : Lossy
Stream size : 157 MiB (1%)
Title : Двухголосый, SDI Media
Language : Russian
Default : No
Forced : No
Audio #5
ID : 6
Format : AC-3
Format/Info : Audio Coding 3
Mode extension : CM (complete main)
Format settings, Endianness : Big
Codec ID : A_AC3
Duration : 1h 54mn
Bit rate mode : Constant
Bit rate : 192 Kbps
Channel(s) : 2 channels
Channel positions : Front: L R
Sampling rate : 48.0 KHz
Frame rate : 31.250 fps (1536 spf)
Compression mode : Lossy
Stream size : 157 MiB (1%)
Title : Двухголосый, Союз Совенчер
Language : Russian
Default : No
Forced : No
Audio #6
ID : 7
Format : AC-3
Format/Info : Audio Coding 3
Mode extension : CM (complete main)
Format settings, Endianness : Big
Codec ID : A_AC3
Duration : 1h 54mn
Bit rate mode : Constant
Bit rate : 448 Kbps
Channel(s) : 6 channels
Channel positions : Front: L C R, Side: L R, LFE
Sampling rate : 48.0 KHz
Frame rate : 31.250 fps (1536 spf)
Compression mode : Lossy
Stream size : 366 MiB (3%)
Title : Одноголосый, А.Гаврилов
Language : Russian
Default : No
Forced : No
Audio #7
ID : 8
Format : AC-3
Format/Info : Audio Coding 3
Format profile : Dolby Digital
Mode extension : CM (complete main)
Format settings, Endianness : Big
Codec ID : A_AC3
Duration : 1h 54mn
Bit rate mode : Constant
Bit rate : 192 Kbps
Channel(s) : 2 channels
Channel positions : Front: L R
Sampling rate : 48.0 KHz
Frame rate : 31.250 fps (1536 spf)
Compression mode : Lossy
Stream size : 157 MiB (1%)
Title : Одноголосый, Дохалов
Language : Russian
Default : No
Forced : No
Audio #8
ID : 9
Format : AC-3
Format/Info : Audio Coding 3
Format profile : Dolby Digital
Mode extension : CM (complete main)
Format settings, Endianness : Big
Codec ID : A_AC3
Duration : 1h 54mn
Bit rate mode : Constant
Bit rate : 192 Kbps
Channel(s) : 2 channels
Channel positions : Front: L R
Sampling rate : 48.0 KHz
Frame rate : 31.250 fps (1536 spf)
Compression mode : Lossy
Stream size : 157 MiB (1%)
Title : Одноголосый, Володарский
Language : Russian
Default : No
Forced : No
Audio #9
ID : 10
Format : AC-3
Format/Info : Audio Coding 3
Mode extension : CM (complete main)
Format settings, Endianness : Big
Codec ID : A_AC3
Duration : 1h 54mn
Bit rate mode : Constant
Bit rate : 448 Kbps
Channel(s) : 6 channels
Channel positions : Front: L C R, Side: L R, LFE
Sampling rate : 48.0 KHz
Frame rate : 31.250 fps (1536 spf)
Compression mode : Lossy
Stream size : 366 MiB (3%)
Title : Одноголосый, М. Яроцкий
Language : Russian
Default : No
Forced : No
Audio #10
ID : 11
Format : AC-3
Format/Info : Audio Coding 3
Mode extension : CM (complete main)
Format settings, Endianness : Big
Codec ID : A_AC3
Duration : 1h 54mn
Bit rate mode : Constant
Bit rate : 256 Kbps
Channel(s) : 2 channels
Channel positions : Front: L R
Sampling rate : 48.0 KHz
Frame rate : 31.250 fps (1536 spf)
Compression mode : Lossy
Stream size : 209 MiB (2%)
Title : Одноголосый, В. Махонько
Language : Russian
Default : No
Forced : No
Audio #11
ID : 12
Format : AC-3
Format/Info : Audio Coding 3
Mode extension : CM (complete main)
Format settings, Endianness : Big
Codec ID : A_AC3
Duration : 1h 54mn
Bit rate mode : Constant
Bit rate : 448 Kbps
Channel(s) : 6 channels
Channel positions : Front: L C R, Side: L R, LFE
Sampling rate : 48.0 KHz
Frame rate : 31.250 fps (1536 spf)
Compression mode : Lossy
Stream size : 366 MiB (3%)
Language : English
Default : No
Forced : No
Text #1
ID : 13
Format : UTF-8
Codec ID : S_TEXT/UTF8
Codec ID/Info : UTF-8 Plain Text
Duration : 1h 52mn
Bit rate : 49 bps
Count of elements : 800
Stream size : 40.9 KiB (0%)
Language : Russian
Default : No
Forced : No
Text #2
ID : 14
Format : UTF-8
Codec ID : S_TEXT/UTF8
Codec ID/Info : UTF-8 Plain Text
Duration : 1h 53mn
Bit rate : 44 bps
Count of elements : 1365
Stream size : 37.3 KiB (0%)
Language : English
Default : No
Forced : No
Menu
00:00:00.000 : en:Opening Credits
00:04:10.291 : en:Double Deuce
00:06:23.383 : en:Welcome to Jasper
00:09:46.669 : en:Paid to Play
00:12:36.505 : en:Ten a Kiss
00:16:24.942 : en:She's a Runner
00:21:58.650 : en:3 Rules
00:25:43.166 : en:Cleaning House
00:29:46.701 : en:No Joke
00:32:23.066 : en:Hello Red
00:36:41.824 : en:Little Mistake
00:39:13.184 : en:Pain Don't Hurt
00:42:06.565 : en:Everybody Pays
00:46:01.925 : en:New Town, Same Story
00:47:46.738 : en:Sorry, We're Closed
00:51:03.018 : en:Fan Club
00:53:56.107 : en:Because of Me
00:57:45.336 : en:Running Out of Booze
00:59:41.703 : en:You Can Stay
01:06:28.067 : en:Word Is...
01:10:56.585 : en:It's a Lie
01:15:47.292 : en:Things Heat Up
01:23:44.936 : en:This is My Town
01:29:25.985 : en:Prepare to Die
01:35:48.743 : en:Coin Toss
01:40:42.494 : en:Tails Again...
01:44:04.279 : en:Trophy Room
01:49:24.724 : en:End Credits

[Профиль] [ЛС]
Показать сообщения:    

Текущее время: Сегодня 18:29

Часовой пояс: GMT



Вы не можете начинать темы
Вы не можете отвечать на сообщения
Вы не можете редактировать свои сообщения
Вы не можете удалять свои сообщения
Вы не можете голосовать в опросах
Вы не можете прикреплять файлы к сообщениям
Вы не можете скачивать файлы