Придорожная закусочная / Придорожное заведение / Дом у дороги / Road House (Рауди Херрингтон / Rowdy Herrington) [1989 г., боевик, триллер, мелодрама, драма, криминал, Blu-ray]

 
Автор Сообщение

sergej644 ®

Пол:

Стаж: 4 года 11 месяцев

Сообщений: 6043

Откуда: Soviet Union



Награды: Нет

Торрент-статистика

Создавать темы 21-Дек-2015 15:07

[Цитировать]

-Придорожная закусочная / Придорожное заведение / Дом у дороги / Road House
Год выпуска: 1989
Страна: США, Silver Pictures
Жанр: боевик, триллер, мелодрама, драма, криминал
Продолжительность: 01:54:09
Перевод: Профессиональный (многоголосый, закадровый) СТС, Профессиональный (двухголосый), Авторский (Гаврилов), Авторский (Дохалов), Авторский (Володарский)
Русские субтитры: есть
Режиссер: Рауди Херрингтон / Rowdy Herrington
В ролях: Патрик Суэйзи, Келли Линч, Сэм Эллиотт, Бен Газзара, Маршалл Р. Тиг, Джули Майклс, Ред Уэст, Саншайн Паркер, Джефф Хили
Описание: Далтон — легендарный вышибала, который прибывает в Джаспер, штат Миссури с определенной целью: восстановить порядок в небезопасном баре Двойная порция.
По мере того, как он избавляет бар от головорезов, хулиганов и наемных убийц, крепчает гнев их работодателя — печально известного рэкетира Брэда Уэсли. Город живет в страхе перед Уэсли, но Далтон готов действовать!

Качество: Blu-ray
Формат: M2TS
Видео: MPEG-2, 1920x1088, 23.976 fps, max~39.000.000 bps
Аудио:
Английский DTS-HD,
Русский DTS 5.1 (1536kbps, Гаврилов),
Русский Dolby Digital 2.0 (160kbps, СТС),
Русский Dolby Digital 2.0 (192kbps, двухголосый),
Русский Dolby Digital 2.0 (192kbps, Володарский),
Русский Dolby Digital 2.0 (192kbps, Дохалов)
Субтитры: Английские, Русские, Испанские

Технические комментарии

Диск пересобран из оригинального Blu-ray диска. Используемые программы: BD Reauthor от DVDLogic Software и Sonic Scenarist BD. Полностью сохранена структура оригинального Blu-ray диска.
За исходник большое спасибо Kanowsky. Русский звук, субтитры взяты из раздачи serin-а, все благодарности ему.
Воспроизведение на компьютере проверено в ArcSoft TotalMedia Theatre 3 и MPC HomeCinema 1.2.

BDInfo


Disc Title: ROADHOUSE
Disc Size: 23 218 419 272 bytes
Protection: AACS
BD-Java: No
BDInfo: 0.5.2
********************
PLAYLIST: 00001.MPLS
********************
Total   Video
Title                                                           Codec   Length  Movie Size      Disc Size       Bitrate Bitrate Main Audio Track                          Secondary Audio Track
-----                                                           ------  ------- --------------  --------------  ------- ------- ------------------                        ---------------------
00001.MPLS                                                      MPEG-2  1:54:09 21 759 000 576  23 218 419 272  25,41   18,05   DTS-HD Master 5.1 3411Kbps (48kHz/24-bit)
DISC INFO:
Disc Title:     ROADHOUSE
Disc Size:      23 218 419 272 bytes
Protection:     AACS
BD-Java:        No
BDInfo:         0.5.2
PLAYLIST REPORT:
Name:                   00001.MPLS
Size:                   21 759 000 576 bytes
Length:                 1:54:09 (h:m:s)
Total Bitrate:          25,41 Mbps
Description:
VIDEO:
Codec                   Bitrate             Description
-----                   -------             -----------
MPEG-2 Video            18052 kbps          1080p / 23,976 fps / 16:9
AUDIO:
Codec                           Language        Bitrate         Description
-----                           --------        -------         -----------
DTS-HD Master Audio             English         3411 kbps       5.1 / 48 kHz / 3411 kbps / 24-bit (DTS Core: 5.1 / 48 kHz / 1509 kbps / 24-bit)
DTS Audio                       Russian         1509 kbps       5.1 / 48 kHz / 1509 kbps / 24-bit
Dolby Digital Audio             Russian         192 kbps        2.0 / 48 kHz / 192 kbps / Dolby Surround
Dolby Digital Audio             Russian         192 kbps        2.0 / 48 kHz / 192 kbps / Dolby Surround
Dolby Digital Audio             Russian         160 kbps        2.0 / 48 kHz / 160 kbps
Dolby Digital Audio             Russian         192 kbps        2.0 / 48 kHz / 192 kbps
SUBTITLES:
Codec                           Language        Bitrate         Description
-----                           --------        -------         -----------
Presentation Graphics           English         21,870 kbps
Presentation Graphics           Russian         14,942 kbps
Presentation Graphics           Spanish         19,948 kbps
Presentation Graphics           Spanish         0,175 kbps
FILES:
Name            Time In         Length          Size            Total Bitrate
----            -------         ------          ----            -------------
00002.M2TS      0:00:00.000     1:54:09.926     21 759 000 576  25 412
CHAPTERS:
Number          Time In         Length          Avg Video Rate  Max 1-Sec Rate  Max 1-Sec Time  Max 5-Sec Rate  Max 5-Sec Time  Max 10Sec Rate  Max 10Sec Time  Avg Frame Size  Max Frame Size  Max Frame Time
------          -------         ------          --------------  --------------  --------------  --------------  --------------  --------------  --------------  --------------  --------------  --------------
1               0:00:00.000     0:04:10.291     19 393 kbps     38 754 kbps     00:00:37.328    35 392 kbps     00:00:37.412    35 186 kbps     00:00:36.911    101 088 bytes   703 087 bytes   00:00:48.840
2               0:04:10.291     0:02:13.091     17 172 kbps     40 235 kbps     00:06:09.535    35 700 kbps     00:06:09.535    34 602 kbps     00:06:09.410    89 528 bytes    703 085 bytes   00:06:14.540
3               0:06:23.383     0:03:23.286     16 408 kbps     37 957 kbps     00:07:18.896    35 163 kbps     00:07:18.062    27 533 kbps     00:07:14.851    85 545 bytes    703 084 bytes   00:07:21.357
4               0:09:46.669     0:02:49.836     17 644 kbps     25 005 kbps     00:12:35.504    20 971 kbps     00:12:10.020    20 270 kbps     00:12:12.189    91 990 bytes    590 644 bytes   00:12:36.505
5               0:12:36.505     0:03:48.436     18 255 kbps     26 936 kbps     00:15:36.685    22 650 kbps     00:15:32.681    21 513 kbps     00:15:35.768    95 174 bytes    570 868 bytes   00:14:13.978
6               0:16:24.942     0:05:33.708     18 546 kbps     27 574 kbps     00:18:43.997    25 116 kbps     00:18:42.496    23 294 kbps     00:18:41.495    96 690 bytes    623 062 bytes   00:21:46.805
7               0:21:58.650     0:03:44.515     15 817 kbps     21 926 kbps     00:25:42.165    18 500 kbps     00:23:09.096    17 619 kbps     00:23:53.515    82 461 bytes    677 181 bytes   00:25:43.166
8               0:25:43.166     0:04:03.534     17 651 kbps     37 056 kbps     00:29:41.029    34 973 kbps     00:29:26.473    33 062 kbps     00:29:35.732    92 023 bytes    703 085 bytes   00:29:43.531
9               0:29:46.701     0:02:36.364     21 479 kbps     39 271 kbps     00:30:40.296    35 683 kbps     00:30:13.770    34 878 kbps     00:31:47.488    111 983 bytes   703 087 bytes   00:30:44.968
10              0:32:23.066     0:04:18.758     16 424 kbps     38 833 kbps     00:36:04.245    35 440 kbps     00:36:00.491    32 859 kbps     00:36:00.533    85 626 bytes    703 085 bytes   00:36:01.450
11              0:36:41.824     0:02:31.359     23 437 kbps     39 345 kbps     00:38:20.131    35 730 kbps     00:38:19.964    35 263 kbps     00:38:15.793    122 188 bytes   702 603 bytes   00:37:50.810
12              0:39:13.184     0:02:53.381     15 395 kbps     21 205 kbps     00:39:50.096    18 011 kbps     00:39:46.133    16 839 kbps     00:39:41.128    80 264 bytes    461 231 bytes   00:41:26.275
13              0:42:06.565     0:03:55.360     18 092 kbps     25 901 kbps     00:44:00.220    23 558 kbps     00:42:08.108    23 087 kbps     00:42:06.565    94 325 bytes    604 512 bytes   00:43:07.668
14              0:46:01.925     0:01:44.813     17 866 kbps     25 095 kbps     00:47:45.737    19 911 kbps     00:46:37.669    19 266 kbps     00:46:33.707    93 146 bytes    685 100 bytes   00:47:46.738
15              0:47:46.738     0:03:16.279     18 175 kbps     35 857 kbps     00:51:01.725    21 852 kbps     00:50:58.013    20 985 kbps     00:50:18.306    94 754 bytes    703 081 bytes   00:51:02.392
16              0:51:03.018     0:02:53.089     18 440 kbps     39 015 kbps     00:51:08.356    35 247 kbps     00:51:04.352    34 730 kbps     00:51:05.353    96 137 bytes    703 081 bytes   00:51:04.519
17              0:53:56.107     0:03:49.228     18 120 kbps     36 346 kbps     00:53:57.901    28 066 kbps     00:53:56.399    23 636 kbps     00:53:56.399    94 467 bytes    703 085 bytes   00:53:58.026
18              0:57:45.336     0:01:56.366     18 223 kbps     24 154 kbps     00:58:07.025    20 940 kbps     00:57:57.348    20 491 kbps     00:57:57.932    95 005 bytes    639 687 bytes   00:57:55.263
19              0:59:41.703     0:06:46.364     17 875 kbps     35 647 kbps     01:00:36.883    34 904 kbps     01:00:32.253    34 870 kbps     01:00:27.874    93 193 bytes    703 088 bytes   01:00:17.780
20              1:06:28.067     0:04:28.518     18 250 kbps     27 231 kbps     01:08:35.111    22 097 kbps     01:08:31.107    21 718 kbps     01:09:09.520    95 149 bytes    620 134 bytes   01:09:38.215
21              1:10:56.585     0:04:50.707     16 902 kbps     26 279 kbps     01:15:46.291    19 572 kbps     01:12:16.790    18 898 kbps     01:12:16.749    88 121 bytes    693 325 bytes   01:15:47.292
22              1:15:47.292     0:07:57.643     18 801 kbps     37 981 kbps     01:16:49.187    35 149 kbps     01:16:44.558    31 102 kbps     01:16:40.304    98 022 bytes    703 084 bytes   01:16:46.101
23              1:23:44.936     0:05:41.049     18 603 kbps     38 869 kbps     01:25:52.438    28 182 kbps     01:25:49.435    24 825 kbps     01:25:43.930    96 985 bytes    649 050 bytes   01:29:25.985
24              1:29:25.985     0:06:22.757     17 398 kbps     39 102 kbps     01:31:13.801    35 586 kbps     01:31:09.297    33 415 kbps     01:31:07.253    90 706 bytes    703 082 bytes   01:31:15.303
25              1:35:48.743     0:04:53.751     15 864 kbps     24 178 kbps     01:40:41.493    19 442 kbps     01:40:37.489    18 164 kbps     01:40:32.484    82 708 bytes    668 387 bytes   01:40:42.494
26              1:40:42.494     0:03:21.784     21 888 kbps     40 231 kbps     01:40:59.762    36 857 kbps     01:40:55.758    35 971 kbps     01:40:53.505    114 114 bytes   703 081 bytes   01:40:50.961
27              1:44:04.279     0:05:20.445     16 376 kbps     24 131 kbps     01:46:39.851    19 278 kbps     01:45:52.554    18 780 kbps     01:46:31.176    85 377 bytes    500 825 bytes   01:44:50.826
28              1:49:24.724     0:04:45.201     19 634 kbps     24 621 kbps     01:53:07.363    23 854 kbps     01:53:06.863    23 546 kbps     01:53:06.488    102 378 bytes   421 987 bytes   01:54:09.717
STREAM DIAGNOSTICS:
File            PID             Type            Codec           Language                Seconds                 Bitrate                 Bytes           Packets
----            ---             ----            -----           --------                --------------          --------------          -------------   -----
00002.M2TS      4113 (0x1011)   0x02            MPEG-2                                  6849,801                18 052                  15 456 905 276  84 100 442
00002.M2TS      4352 (0x1100)   0x86            DTS-HD MA       eng (English)           6849,801                3 411                   2 920 644 584   16 940 308
00002.M2TS      4353 (0x1101)   0x82            DTS             rus (Russian)           6849,801                1 510                   1 292 704 314   7 706 136
00002.M2TS      4354 (0x1102)   0x81            AC3             rus (Russian)           6849,801                160                     136 990 080     856 188
00002.M2TS      4355 (0x1103)   0x81            AC3             rus (Russian)           6849,801                192                     164 454 912     1 070 670
00002.M2TS      4356 (0x1104)   0x81            AC3             rus (Russian)           6849,801                192                     164 388 096     1 070 235
00002.M2TS      4357 (0x1105)   0x81            AC3             rus (Russian)           6849,801                192                     164 388 096     1 070 235
00002.M2TS      4608 (0x1200)   0x90            PGS             eng (English)           6849,801                22                      18 726 185      108 879
00002.M2TS      4609 (0x1201)   0x90            PGS             spa (Spanish)           6849,801                20                      17 080 007      99 195
00002.M2TS      4610 (0x1202)   0x90            PGS             rus (Russian)           6849,801                15                      12 793 719      75 349
00002.M2TS      4611 (0x1203)   0x90            PGS             spa (Spanish)           6849,801                0                       149 879         884
QUICK SUMMARY:
Disc Title: ROADHOUSE
Disc Size: 23 218 419 272 bytes
Protection: AACS
BD-Java: No
Playlist: 00001.MPLS
Size: 21 759 000 576 bytes
Length: 1:54:09
Total Bitrate: 25,41 Mbps
Video: MPEG-2 Video / 18052 kbps / 1080p / 23,976 fps / 16:9
Audio: English / DTS-HD Master Audio / 5.1 / 48 kHz / 3411 kbps / 24-bit (DTS Core: 5.1 / 48 kHz / 1509 kbps / 24-bit)
Audio: Russian / DTS Audio / 5.1 / 48 kHz / 1509 kbps / 24-bit
Audio: Russian / Dolby Digital Audio / 2.0 / 48 kHz / 192 kbps / Dolby Surround
Audio: Russian / Dolby Digital Audio / 2.0 / 48 kHz / 192 kbps / Dolby Surround
Audio: Russian / Dolby Digital Audio / 2.0 / 48 kHz / 160 kbps
Audio: Russian / Dolby Digital Audio / 2.0 / 48 kHz / 192 kbps
Subtitle: English / 21,870 kbps
Subtitle: Russian / 14,942 kbps
Subtitle: Spanish / 19,948 kbps
Subtitle: Spanish / 0,175 kbps
********************
PLAYLIST: 00018.MPLS
********************
Total   Video
Title                                                           Codec   Length  Movie Size      Disc Size       Bitrate Bitrate Main Audio Track                          Secondary Audio Track
-----                                                           ------  ------- --------------  --------------  ------- ------- ------------------                        ---------------------
00018.MPLS                                                      MPEG-2  0:07:24 961 781 760     23 218 419 272  17,29   16,19   DD AC3 2.0 224Kbps
DISC INFO:
Disc Title:     ROADHOUSE
Disc Size:      23 218 419 272 bytes
Protection:     AACS
BD-Java:        No
BDInfo:         0.5.2
PLAYLIST REPORT:
Name:                   00018.MPLS
Size:                   961 781 760 bytes
Length:                 0:07:24 (h:m:s)
Total Bitrate:          17,29 Mbps
Description:
VIDEO:
Codec                   Bitrate             Description
-----                   -------             -----------
MPEG-2 Video            16193 kbps          1080p / 23,976 fps / 16:9
AUDIO:
Codec                           Language        Bitrate         Description
-----                           --------        -------         -----------
Dolby Digital Audio             English         224 kbps        2.0 / 48 kHz / 224 kbps
FILES:
Name            Time In         Length          Size            Total Bitrate
----            -------         ------          ----            -------------
00012.M2TS      0:00:00.000     0:02:18.138     322 879 488     18 699
00024.M2TS      0:02:18.138     0:02:28.731     329 017 344     17 697
00023.M2TS      0:04:46.869     0:02:38.116     309 884 928     15 679
CHAPTERS:
Number          Time In         Length          Avg Video Rate  Max 1-Sec Rate  Max 1-Sec Time  Max 5-Sec Rate  Max 5-Sec Time  Max 10Sec Rate  Max 10Sec Time  Avg Frame Size  Max Frame Size  Max Frame Time
------          -------         ------          --------------  --------------  --------------  --------------  --------------  --------------  --------------  --------------  --------------  --------------
1               0:00:00.000     0:02:18.138     17 641 kbps     43 480 kbps     00:00:37.537    32 688 kbps     00:01:50.610    27 592 kbps     00:00:35.660    91 943 bytes    672 204 bytes   00:00:38.455
2               0:02:18.138     0:02:28.731     16 418 kbps     39 820 kbps     00:04:36.901    23 960 kbps     00:04:26.057    20 539 kbps     00:04:19.634    85 595 bytes    637 045 bytes   00:03:25.496
3               0:04:46.869     0:02:38.116     14 718 kbps     24 096 kbps     00:06:51.244    19 090 kbps     00:06:47.240    18 218 kbps     00:06:50.910    76 752 bytes    351 053 bytes   00:04:52.291
STREAM DIAGNOSTICS:
File            PID             Type            Codec           Language                Seconds                 Bitrate                 Bytes           Packets
----            ---             ----            -----           --------                --------------          --------------          -------------   -----
00012.M2TS      4113 (0x1011)   0x02            MPEG-2                                  138,013                 17 636                  304 245 061     1 655 420
00012.M2TS      4352 (0x1100)   0x81            AC3             eng (English)           138,013                 224                     3 868 032       21 585
00024.M2TS      4113 (0x1011)   0x02            MPEG-2                                  148,649                 16 439                  305 447 657     1 662 123
00024.M2TS      4352 (0x1100)   0x81            AC3             eng (English)           148,649                 448                     8 329 216       46 480
00023.M2TS      4113 (0x1011)   0x02            MPEG-2                                  158,033                 14 733                  291 034 319     1 583 937
00023.M2TS      4352 (0x1100)   0x81            AC3             eng (English)           158,033                 224                     4 428 032       24 710
QUICK SUMMARY:
Disc Title: ROADHOUSE
Disc Size: 23 218 419 272 bytes
Protection: AACS
BD-Java: No
Playlist: 00018.MPLS
Size: 961 781 760 bytes
Length: 0:07:24
Total Bitrate: 17,29 Mbps
Video: MPEG-2 Video / 16193 kbps / 1080p / 23,976 fps / 16:9
Audio: English / Dolby Digital Audio / 2.0 / 48 kHz / 224 kbps
********************
PLAYLIST: 00022.MPLS
********************
Total   Video
Title                                                           Codec   Length  Movie Size      Disc Size       Bitrate Bitrate Main Audio Track                          Secondary Audio Track
-----                                                           ------  ------- --------------  --------------  ------- ------- ------------------                        ---------------------
00022.MPLS                                                      MPEG-2  0:02:38 309 884 928     23 218 419 272  15,68   14,73   DD AC3 2.0 224Kbps
DISC INFO:
Disc Title:     ROADHOUSE
Disc Size:      23 218 419 272 bytes
Protection:     AACS
BD-Java:        No
BDInfo:         0.5.2
PLAYLIST REPORT:
Name:                   00022.MPLS
Size:                   309 884 928 bytes
Length:                 0:02:38 (h:m:s)
Total Bitrate:          15,68 Mbps
Description:
VIDEO:
Codec                   Bitrate             Description
-----                   -------             -----------
MPEG-2 Video            14725 kbps          1080p / 23,976 fps / 16:9
AUDIO:
Codec                           Language        Bitrate         Description
-----                           --------        -------         -----------
Dolby Digital Audio             English         224 kbps        2.0 / 48 kHz / 224 kbps
FILES:
Name            Time In         Length          Size            Total Bitrate
----            -------         ------          ----            -------------
00023.M2TS      0:00:00.000     0:02:38.116     309 884 928     15 679
CHAPTERS:
Number          Time In         Length          Avg Video Rate  Max 1-Sec Rate  Max 1-Sec Time  Max 5-Sec Rate  Max 5-Sec Time  Max 10Sec Rate  Max 10Sec Time  Avg Frame Size  Max Frame Size  Max Frame Time
------          -------         ------          --------------  --------------  --------------  --------------  --------------  --------------  --------------  --------------  --------------  --------------
1               0:00:00.000     0:02:38.116     14 725 kbps     24 096 kbps     00:02:04.374    19 090 kbps     00:02:00.370    18 218 kbps     00:02:04.040    76 770 bytes    351 053 bytes   00:00:05.422
STREAM DIAGNOSTICS:
File            PID             Type            Codec           Language                Seconds                 Bitrate                 Bytes           Packets
----            ---             ----            -----           --------                --------------          --------------          -------------   -----
00023.M2TS      4113 (0x1011)   0x02            MPEG-2                                  158,033                 14 733                  291 034 319     1 583 937
00023.M2TS      4352 (0x1100)   0x81            AC3             eng (English)           158,033                 224                     4 428 032       24 710
QUICK SUMMARY:
Disc Title: ROADHOUSE
Disc Size: 23 218 419 272 bytes
Protection: AACS
BD-Java: No
Playlist: 00022.MPLS
Size: 309 884 928 bytes
Length: 0:02:38
Total Bitrate: 15,68 Mbps
Video: MPEG-2 Video / 14725 kbps / 1080p / 23,976 fps / 16:9
Audio: English / Dolby Digital Audio / 2.0 / 48 kHz / 224 kbps
********************
PLAYLIST: 00023.MPLS
********************
Total   Video
Title                                                           Codec   Length  Movie Size      Disc Size       Bitrate Bitrate Main Audio Track                          Secondary Audio Track
-----                                                           ------  ------- --------------  --------------  ------- ------- ------------------                        ---------------------
00023.MPLS                                                      MPEG-2  0:02:28 329 017 344     23 218 419 272  17,70   16,43   DD AC3 5.1 448Kbps
DISC INFO:
Disc Title:     ROADHOUSE
Disc Size:      23 218 419 272 bytes
Protection:     AACS
BD-Java:        No
BDInfo:         0.5.2
PLAYLIST REPORT:
Name:                   00023.MPLS
Size:                   329 017 344 bytes
Length:                 0:02:28 (h:m:s)
Total Bitrate:          17,70 Mbps
Description:
VIDEO:
Codec                   Bitrate             Description
-----                   -------             -----------
MPEG-2 Video            16429 kbps          1080p / 23,976 fps / 16:9
AUDIO:
Codec                           Language        Bitrate         Description
-----                           --------        -------         -----------
Dolby Digital Audio             English         448 kbps        5.1 / 48 kHz / 448 kbps
FILES:
Name            Time In         Length          Size            Total Bitrate
----            -------         ------          ----            -------------
00024.M2TS      0:00:00.000     0:02:28.731     329 017 344     17 697
CHAPTERS:
Number          Time In         Length          Avg Video Rate  Max 1-Sec Rate  Max 1-Sec Time  Max 5-Sec Rate  Max 5-Sec Time  Max 10Sec Rate  Max 10Sec Time  Avg Frame Size  Max Frame Size  Max Frame Time
------          -------         ------          --------------  --------------  --------------  --------------  --------------  --------------  --------------  --------------  --------------  --------------
1               0:00:00.000     0:02:28.731     16 429 kbps     39 820 kbps     00:02:18.763    23 960 kbps     00:02:07.919    20 539 kbps     00:02:01.496    85 656 bytes    637 045 bytes   00:01:07.358
STREAM DIAGNOSTICS:
File            PID             Type            Codec           Language                Seconds                 Bitrate                 Bytes           Packets
----            ---             ----            -----           --------                --------------          --------------          -------------   -----
00024.M2TS      4113 (0x1011)   0x02            MPEG-2                                  148,649                 16 439                  305 447 657     1 662 123
00024.M2TS      4352 (0x1100)   0x81            AC3             eng (English)           148,649                 448                     8 329 216       46 480
QUICK SUMMARY:
Disc Title: ROADHOUSE
Disc Size: 23 218 419 272 bytes
Protection: AACS
BD-Java: No
Playlist: 00023.MPLS
Size: 329 017 344 bytes
Length: 0:02:28
Total Bitrate: 17,70 Mbps
Video: MPEG-2 Video / 16429 kbps / 1080p / 23,976 fps / 16:9
Audio: English / Dolby Digital Audio / 5.1 / 48 kHz / 448 kbps
********************
PLAYLIST: 00010.MPLS
********************
Total   Video
Title                                                           Codec   Length  Movie Size      Disc Size       Bitrate Bitrate Main Audio Track                          Secondary Audio Track
-----                                                           ------  ------- --------------  --------------  ------- ------- ------------------                        ---------------------
00010.MPLS                                                      MPEG-2  0:02:18 322 879 488     23 218 419 272  18,70   17,62   DD AC3 2.0 224Kbps
DISC INFO:
Disc Title:     ROADHOUSE
Disc Size:      23 218 419 272 bytes
Protection:     AACS
BD-Java:        No
BDInfo:         0.5.2
PLAYLIST REPORT:
Name:                   00010.MPLS
Size:                   322 879 488 bytes
Length:                 0:02:18 (h:m:s)
Total Bitrate:          18,70 Mbps
Description:
VIDEO:
Codec                   Bitrate             Description
-----                   -------             -----------
MPEG-2 Video            17620 kbps          1080p / 23,976 fps / 16:9
AUDIO:
Codec                           Language        Bitrate         Description
-----                           --------        -------         -----------
Dolby Digital Audio             English         224 kbps        2.0 / 48 kHz / 224 kbps
FILES:
Name            Time In         Length          Size            Total Bitrate
----            -------         ------          ----            -------------
00012.M2TS      0:00:00.000     0:02:18.138     322 879 488     18 699
CHAPTERS:
Number          Time In         Length          Avg Video Rate  Max 1-Sec Rate  Max 1-Sec Time  Max 5-Sec Rate  Max 5-Sec Time  Max 10Sec Rate  Max 10Sec Time  Avg Frame Size  Max Frame Size  Max Frame Time
------          -------         ------          --------------  --------------  --------------  --------------  --------------  --------------  --------------  --------------  --------------  --------------
1               0:00:00.000     0:02:18.138     17 620 kbps     43 480 kbps     00:00:37.537    32 688 kbps     00:01:50.610    27 592 kbps     00:00:35.660    91 861 bytes    672 204 bytes   00:00:38.455
STREAM DIAGNOSTICS:
File            PID             Type            Codec           Language                Seconds                 Bitrate                 Bytes           Packets
----            ---             ----            -----           --------                --------------          --------------          -------------   -----
00012.M2TS      4113 (0x1011)   0x02            MPEG-2                                  138,013                 17 636                  304 245 061     1 655 420
00012.M2TS      4352 (0x1100)   0x81            AC3             eng (English)           138,013                 224                     3 868 032       21 585
QUICK SUMMARY:
Disc Title: ROADHOUSE
Disc Size: 23 218 419 272 bytes
Protection: AACS
BD-Java: No
Playlist: 00010.MPLS
Size: 322 879 488 bytes
Length: 0:02:18
Total Bitrate: 18,70 Mbps
Video: MPEG-2 Video / 17620 kbps / 1080p / 23,976 fps / 16:9
Audio: English / Dolby Digital Audio / 2.0 / 48 kHz / 224 kbps
********************
PLAYLIST: 00012.MPLS
********************
Total   Video
Title                                                           Codec   Length  Movie Size      Disc Size       Bitrate Bitrate Main Audio Track                          Secondary Audio Track
-----                                                           ------  ------- --------------  --------------  ------- ------- ------------------                        ---------------------
00012.MPLS                                                      MPEG-2  0:01:56 229 281 792     23 218 419 272  15,73   14,77   DD AC3 2.0 224Kbps
DISC INFO:
Disc Title:     ROADHOUSE
Disc Size:      23 218 419 272 bytes
Protection:     AACS
BD-Java:        No
BDInfo:         0.5.2
PLAYLIST REPORT:
Name:                   00012.MPLS
Size:                   229 281 792 bytes
Length:                 0:01:56 (h:m:s)
Total Bitrate:          15,73 Mbps
Description:
VIDEO:
Codec                   Bitrate             Description
-----                   -------             -----------
MPEG-2 Video            14773 kbps          1080p / 23,976 fps / 16:9
AUDIO:
Codec                           Language        Bitrate         Description
-----                           --------        -------         -----------
Dolby Digital Audio             English         224 kbps        2.0 / 48 kHz / 224 kbps
FILES:
Name            Time In         Length          Size            Total Bitrate
----            -------         ------          ----            -------------
00014.M2TS      0:00:00.000     0:01:56.616     229 281 792     15 729
CHAPTERS:
Number          Time In         Length          Avg Video Rate  Max 1-Sec Rate  Max 1-Sec Time  Max 5-Sec Rate  Max 5-Sec Time  Max 10Sec Rate  Max 10Sec Time  Avg Frame Size  Max Frame Size  Max Frame Time
------          -------         ------          --------------  --------------  --------------  --------------  --------------  --------------  --------------  --------------  --------------  --------------
1               0:00:00.000     0:01:56.616     14 773 kbps     35 527 kbps     00:00:18.101    29 224 kbps     00:01:02.187    25 106 kbps     00:00:31.781    77 022 bytes    674 020 bytes   00:01:34.636
STREAM DIAGNOSTICS:
File            PID             Type            Codec           Language                Seconds                 Bitrate                 Bytes           Packets
----            ---             ----            -----           --------                --------------          --------------          -------------   -----
00014.M2TS      4113 (0x1011)   0x02            MPEG-2                                  116,491                 14 789                  215 352 553     1 172 004
00014.M2TS      4352 (0x1100)   0x81            AC3             eng (English)           116,491                 224                     3 265 920       18 225
QUICK SUMMARY:
Disc Title: ROADHOUSE
Disc Size: 23 218 419 272 bytes
Protection: AACS
BD-Java: No
Playlist: 00012.MPLS
Size: 229 281 792 bytes
Length: 0:01:56
Total Bitrate: 15,73 Mbps
Video: MPEG-2 Video / 14773 kbps / 1080p / 23,976 fps / 16:9
Audio: English / Dolby Digital Audio / 2.0 / 48 kHz / 224 kbps
********************
PLAYLIST: 00017.MPLS
********************
Total   Video
Title                                                           Codec   Length  Movie Size      Disc Size       Bitrate Bitrate Main Audio Track                          Secondary Audio Track
-----                                                           ------  ------- --------------  --------------  ------- ------- ------------------                        ---------------------
00017.MPLS                                                      MPEG-2  0:00:14 40 937 472      23 218 419 272  23,37   21,86   DD AC3 5.1 448Kbps
DISC INFO:
Disc Title:     ROADHOUSE
Disc Size:      23 218 419 272 bytes
Protection:     AACS
BD-Java:        No
BDInfo:         0.5.2
PLAYLIST REPORT:
Name:                   00017.MPLS
Size:                   40 937 472 bytes
Length:                 0:00:14 (h:m:s)
Total Bitrate:          23,37 Mbps
Description:
VIDEO:
Codec                   Bitrate             Description
-----                   -------             -----------
MPEG-2 Video            21862 kbps          1080p / 23,976 fps / 16:9
AUDIO:
Codec                           Language        Bitrate         Description
-----                           --------        -------         -----------
Dolby Digital Audio             English         448 kbps        5.1 / 48 kHz / 448 kbps
FILES:
Name            Time In         Length          Size            Total Bitrate
----            -------         ------          ----            -------------
00019.M2TS      0:00:00.000     0:00:14.014     40 937 472      23 369
CHAPTERS:
Number          Time In         Length          Avg Video Rate  Max 1-Sec Rate  Max 1-Sec Time  Max 5-Sec Rate  Max 5-Sec Time  Max 10Sec Rate  Max 10Sec Time  Avg Frame Size  Max Frame Size  Max Frame Time
------          -------         ------          --------------  --------------  --------------  --------------  --------------  --------------  --------------  --------------  --------------  --------------
1               0:00:00.000     0:00:14.014     21 862 kbps     31 895 kbps     00:00:07.007    27 924 kbps     00:00:03.003    26 894 kbps     00:00:01.000    113 977 bytes   445 607 bytes   00:00:03.294
STREAM DIAGNOSTICS:
File            PID             Type            Codec           Language                Seconds                 Bitrate                 Bytes           Packets
----            ---             ----            -----           --------                --------------          --------------          -------------   -----
00019.M2TS      4113 (0x1011)   0x02            MPEG-2                                  13,889                  22 059                  38 296 406      208 320
00019.M2TS      4352 (0x1100)   0x81            AC3             eng (English)           13,889                  452                     784 896         4 380
QUICK SUMMARY:
Disc Title: ROADHOUSE
Disc Size: 23 218 419 272 bytes
Protection: AACS
BD-Java: No
Playlist: 00017.MPLS
Size: 40 937 472 bytes
Length: 0:00:14
Total Bitrate: 23,37 Mbps
Video: MPEG-2 Video / 21862 kbps / 1080p / 23,976 fps / 16:9
Audio: English / Dolby Digital Audio / 5.1 / 48 kHz / 448 kbps
--
[Профиль] [ЛС]
Показать сообщения:    

Текущее время: Сегодня 22:32

Часовой пояс: GMT



Вы не можете начинать темы
Вы не можете отвечать на сообщения
Вы не можете редактировать свои сообщения
Вы не можете удалять свои сообщения
Вы не можете голосовать в опросах
Вы не можете прикреплять файлы к сообщениям
Вы не можете скачивать файлы